权欲第三章(2021)/ 第一季全10集 4K高清下载

[复制链接]

28

主题

32

帖子

330

积分

版主

Rank: 7Rank: 7Rank: 7

积分
330
 楼主| 发表于 2021-9-29 12:02:30 | 显示全部楼层 |阅读模式
本帖最后由 美剧小虾 于 2021-9-29 14:17 编辑

p2658797412_副本.jpg

◎译  名 权欲第三章
◎片  名 Power Book III: Raising Kanan
◎年  代 2021
◎产  地 美国
◎类  别 剧情/犯罪
◎语  言 英语
◎上映日期 2021-07-18(美国)
◎IMDb评分  7.2/10 from 1592 users
◎IMDb链接  https://www.imdb.com/title/tt11761176/
◎豆瓣评分 /10 from 0 users
◎豆瓣链接 https://douban.com/subject/34979066/
◎编  剧 考特尼·肯普·阿格博 Courtney Kemp Agboh / 萨沙·潘 Sascha Penn
◎主  演 Malcolm M. Mays
       欧玛·艾普斯 Omar Epps
       帕蒂纳·雷内亚·米勒 Patina Renea Miller
       Samantha Browne-Walters Samantha Browne-Walters
       伦敦·布朗 London Brown
       珊莉·卡斯韦尔 Shanley Caswell
       乔伊·巴达斯 Joey Bada$$


◎简  介


  在街上,“Raq”Thomas冷酷、冷酷、凶猛——一个成功而致命的女人,在男人的世界里名声大噪。她坚强、果断、无情,但拉克仍然有爱的能力。伟大的爱。唯一的接受者是她的儿子卡南;他是她的一切。尽管她很关心他,但在很多情况下,人们怀疑她爱他是因为他是谁,还是仅仅因为她自己的延伸。作为三个孩子中的第二个孩子,Raq也肩负着为两个兄弟挣钱的重担。她是太阳,她宇宙中的其他所有人都存在于她的轨道上。
General
Complete name                  : E:\Power.Book.III.Raising.Kanan.S01E10.2160p.STAN.WEB-DL.DDP5.1.HEVC-NTb.mkv
Format                         : Matroska
Format version                 : Version 4
File size                      : 455 MiB
Duration                       : 57 min 37 s
Overall bit rate               : 1 104 kb/s
Encoded date                   : UTC 2021-09-27 15:53:52
Writing application            : mkvmerge v58.0.0 ('Supper's Ready') 64-bit
Writing library                : libebml v1.4.2 + libmatroska v1.6.4
IsTruncated                    : Yes

Video
ID                             : 1
Format                         : HEVC
Format/Info                    : High Efficiency Video Coding
Format profile                 : Main@L5@High
Codec ID                       : V_MPEGH/ISO/HEVC
Duration                       : 57 min 37 s
Bit rate                       : 442 kb/s
Width                          : 3 840 pixels
Height                         : 2 160 pixels
Display aspect ratio           : 16:9
Frame rate mode                : Constant
Frame rate                     : 23.976 (24000/1001) FPS
Color space                    : YUV
Chroma subsampling             : 4:2:0
Bit depth                      : 8 bits
Bits/(Pixel*Frame)             : 0.002
Stream size                    : 182 MiB (40%)
Default                        : Yes
Forced                         : No
Color range                    : Limited
Color primaries                : BT.709
Transfer characteristics       : BT.709
Matrix coefficients            : BT.709

Audio
ID                             : 2
Format                         : E-AC-3
Format/Info                    : Enhanced AC-3
Commercial name                : Dolby Digital Plus
Codec ID                       : A_EAC3
Duration                       : 57 min 37 s
Bit rate mode                  : Constant
Bit rate                       : 640 kb/s
Channel(s)                     : 6 channels
Channel layout                 : L R C LFE Ls Rs
Sampling rate                  : 48.0 kHz
Frame rate                     : 31.250 FPS (1536 SPF)
Compression mode               : Lossy
Stream size                    : 264 MiB (58%)
Language                       : English
Service kind                   : Complete Main
Default                        : Yes
Forced                         : No

Text #1
ID                             : 3
Format                         : UTF-8
Codec ID                       : S_TEXT/UTF8
Codec ID/Info                  : UTF-8 Plain Text
Language                       : English
Default                        : No
Forced                         : No

Text #2
ID                             : 4
Format                         : UTF-8
Codec ID                       : S_TEXT/UTF8
Codec ID/Info                  : UTF-8 Plain Text
Title                          : SDH
Language                       : English
Default                        : No
Forced                         : No

Menu
00:00:23.000                   : Recap & Intro start
00:03:11.000                   : Recap & Intro end / Intro end
00:01:41.000                   : Intro start
00:56:16.000                   : Credits



下载链接

游客,如果您要查看本帖隐藏内容请回复




上一篇:[山海情][原声&配音双音轨][34.75gB][全23集][4K中字][2020豆瓣9....
下一篇:捍卫者联盟 (内嵌中字) (2017) / 第一季全8集 4K高清下载
回复

使用道具 举报

2

主题

1603

帖子

4449

积分

4K家园VIP

Rank: 9Rank: 9Rank: 9

积分
4449
发表于 2021-9-29 12:06:04 | 显示全部楼层
前排支持下了哦~
回复 支持 反对

使用道具 举报

匿名  发表于 2021-9-29 19:08:25
前排支持下了哦~
回复 支持 反对

使用道具

0

主题

6

帖子

31

积分

新手上路

Rank: 1

积分
31
发表于 2021-9-30 20:36:35 | 显示全部楼层
回复 支持 反对

使用道具 举报

0

主题

1292

帖子

3886

积分

4K家园VIP

Rank: 9Rank: 9Rank: 9

积分
3886
发表于 2021-10-5 19:48:44 来自手机 | 显示全部楼层
边撸边过
回复 支持 反对

使用道具 举报

1

主题

1304

帖子

3924

积分

4K家园VIP

Rank: 9Rank: 9Rank: 9

积分
3924
发表于 2021-10-6 10:30:33 | 显示全部楼层
看起来不错
回复 支持 反对

使用道具 举报

1

主题

1363

帖子

3937

积分

4K家园VIP

Rank: 9Rank: 9Rank: 9

积分
3937
发表于 2021-10-9 15:25:40 | 显示全部楼层
没人回帖。。。我来个吧
回复 支持 反对

使用道具 举报

0

主题

2

帖子

9

积分

新手上路

Rank: 1

积分
9
发表于 2021-10-9 16:47:26 | 显示全部楼层
想要看看
回复

使用道具 举报

50

主题

1448

帖子

4206

积分

4K家园VIP

Rank: 9Rank: 9Rank: 9

积分
4206
发表于 7 天前 | 显示全部楼层
有空一起交流一下
回复 支持 反对

使用道具 举报

您需要登录后才可以回帖 登录 | 立即注册

本版积分规则

精彩图文
Archiver|手机版|TAG|Sitemap|新帖|专题|联系我们:邮箱: 4kjia.com@gmail.com   

4k家园   ©2019