[4K电影] 巨鳄风暴 / Crawl (2019) 4K高清版本下载/18.17GB

[复制链接]

956

主题

1017

帖子

8614

积分

超级版主

Rank: 8Rank: 8

积分
8614
 楼主| 发表于 2021-9-30 09:40:47 | 显示全部楼层 |阅读模式
本帖最后由 最爱4K哟 于 2021-9-30 10:10 编辑

QQ图片20210930100442_副本.png

◎译  名 巨鳄风暴/噬逃险鳄(港)/爬行/鳄魔(台)
◎片  名 Crawl
◎年  代 2019
◎产  地 美国
◎类  别 剧情 / 惊悚 / 灾难
◎语  言 英语
◎上映日期 2019-07-12(美国) / 2019-09-12(中国大陆)
◎IMDb评分  6.1/10 from 77389 users
◎IMDb链接  https://www.imdb.com/title/tt8364368/
◎豆瓣评分 5.7/10 from 46840 users
◎豆瓣链接 https://movie.douban.com/subject/30210700/
◎片  长 87分钟
◎导  演 亚历山大·阿嘉 Alexandre Aja
◎编  剧 迈克尔·拉斯姆森 Michael Rasmussen / 肖恩·拉斯姆森 Shawn Rasmussen
◎主  演 卡雅·斯考达里奥 Kaya Scodelario
      巴里·佩珀 Barry Pepper
      罗斯·安德森 Ross Anderson
      安森·布恩 Anson Boon
      乔治·索纳 George Somner
      阿米?梅特卡夫 Ami Metcalf
      何塞?帕尔马 Jose Palma
      莫菲德·克拉克 Morfydd Clark
      安娜玛丽亚·塞尔达 Annamaria Serda
      萨凡纳·斯泰恩 Savannah Steyn
      乔瓦娜·德拉加 Jovana Dragas
      柯林·麦克法兰 Colin McFarlane
      蒂娜?普里比切维奇 Tina Pribicevic
      可可 Cso-Cso


◎简  介

  一场猛烈的飓风正在逼近美国佛罗里达州的一座小镇。女主角海莉(卡雅·斯考达里奥饰)在游泳训练中接到了姐姐的电话,他们的父亲(巴里·佩珀饰)已经失联多时,她非常担心父亲的安危。海莉不顾撤离命令独自前往父亲家中,并最终在地下室里找到了身受重伤的父亲。洪水暴涨眼看就要将地下室淹没,海莉很快就意识到最可怕的并不是洪水,而是隐藏在水中的致命猛兽--鳄鱼。

Video
ID : 1
Format : HEVC
Format/Info : High Efficiency Video Coding
Format profile : Main 10@L5@High
HDR format : Dolby Vision, Version 1.0, dvhe.05.06, BL+RPU
Codec ID : dvhe
Codec ID/Info : High Efficiency Video Coding with Dolby Vision
Duration : 1 h 27 min
Bit rate : 24.4 Mb/s
Width : 3 832 pixels
Original width : 3 828 pixels
Height : 1 600 pixels
Original height : 1 596 pixels
Display aspect ratio : 2.40:1
Original display aspect ratio : 2.40:1
Frame rate mode : Constant
Frame rate : 23.976 (24000/1001) FPS
Color space : YUV
Chroma subsampling : 4:2:0
Bit depth : 10 bits
Bits/(Pixel*Frame) : 0.166
Stream size : 14.9 GiB (97%)
Default : Yes
Alternate group : 1
Encoded date : UTC 2021-09-29 06:22:33
Tagged date : UTC 2021-09-29 06:30:53
Codec configuration box : hvcC+dvcC

Audio
ID : 2
Format : E-AC-3
Format/Info : Enhanced AC-3
Commercial name : Dolby Digital Plus
Codec ID : ec-3
Duration : 1 h 27 min
Bit rate mode : Constant
Bit rate : 640 kb/s
Maximum bit rate : 676 kb/s
Channel(s) : 8 channels
Channel layout : L R C LFE Ls Rs Lb Rb
Sampling rate : 48.0 kHz
Frame rate : 31.250 FPS (1536 SPF)
Compression mode : Lossy
Stream size : 401 MiB (3%)
Title : English
Language : English
Service kind : Complete Main
Encoded date : UTC 2021-09-29 06:19:29
Tagged date : UTC 2021-09-29 06:30:53

Text #1
ID : 3
Format : Timed Text
Codec ID : tx3g
Duration : 1 h 22 min
Bit rate mode : Variable
Bit rate : 27 b/s
Stream size : 16.4 KiB (0%)
Title : English
Language : English
Forced : No
Encoded date : UTC 2021-09-29 06:23:40
Tagged date : UTC 2021-09-29 06:30:53

Text #2
ID : 4
Format : Timed Text
Codec ID : tx3g
Duration : 1 h 25 min
Bit rate mode : Variable
Bit rate : 35 b/s
Stream size : 21.7 KiB (0%)
Title : SDH
Language : English
Forced : No
Encoded date : UTC 2021-09-29 06:23:41
Tagged date : UTC 2021-09-29 06:30:53

Text #3
ID : 5
Format : Timed Text
Codec ID : tx3g
Duration : 1 h 27 min
Bit rate mode : Variable
Bit rate : 25 b/s
Stream size : 16.1 KiB (0%)
Title : Latin American
Language : Spanish
Forced : No
Encoded date : UTC 2021-09-29 06:23:41
Tagged date : UTC 2021-09-29 06:30:53

Menu
00:00:00.000 : Chapter 1
00:07:53.000 : Chapter 2
00:15:18.000 : Chapter 3
00:22:31.000 : Chapter 4
00:34:41.000 : Chapter 5
00:42:17.000 : Chapter 6
00:50:11.000 : Chapter 7
00:57:09.000 : Chapter 8
01:03:42.000 : Chapter 9
01:08:38.000 : Chapter 10
01:15:16.000 : Chapter 11
01:23:11.000 : Chapter 12

下载地址

巨鳄风暴(18.17GB)Crawl.2019.2160p.WEB-DL.x265.10bit.HDR.DTS-HD.MA.7.1-SWTYBLZ..torrent (23.37 KB, 售价: 9 金币)

上一篇:失控玩家 / Free Guy (2021) 4K高清版本下载/16.02GB
下一篇:纪录片/鸟瞰澳大利亚/Over Australia (2017)4K高清下载/9.99GB
回复

使用道具 举报

1

主题

1602

帖子

4346

积分

4K家园VIP

Rank: 9Rank: 9Rank: 9

积分
4346
发表于 2021-9-30 09:40:51 | 显示全部楼层
体验下4K版的
回复 支持 反对

使用道具 举报

0

主题

18

帖子

171

积分

4K家园VIP

Rank: 9Rank: 9Rank: 9

积分
171
发表于 2021-9-30 16:25:58 | 显示全部楼层
有中文字幕吗?
回复 支持 反对

使用道具 举报

2

主题

1582

帖子

4346

积分

4K家园VIP

Rank: 9Rank: 9Rank: 9

积分
4346
发表于 2021-10-1 07:19:55 | 显示全部楼层
纯粹路过,没任何兴趣,仅仅是看在老用户份上回复一下
回复 支持 反对

使用道具 举报

44

主题

1416

帖子

4092

积分

4K家园VIP

Rank: 9Rank: 9Rank: 9

积分
4092
发表于 2021-10-1 20:24:51 | 显示全部楼层
支持,赞一个
回复 支持 反对

使用道具 举报

1

主题

1333

帖子

3841

积分

4K家园VIP

Rank: 9Rank: 9Rank: 9

积分
3841
发表于 2021-10-2 08:37:57 | 显示全部楼层
啊啊啊啊啊啊啊啊啊啊啊
回复 支持 反对

使用道具 举报

1

主题

1366

帖子

3906

积分

4K家园VIP

Rank: 9Rank: 9Rank: 9

积分
3906
发表于 2021-10-7 15:26:00 来自手机 | 显示全部楼层
支持楼主,用户楼主,楼主英明呀!!!
回复 支持 反对

使用道具 举报

您需要登录后才可以回帖 登录 | 立即注册

本版积分规则

精彩图文
Archiver|手机版|TAG|Sitemap|新帖|专题|联系我们:邮箱: 4kjia.com@gmail.com   

4k家园   ©2019