[4K电影] 纪录片/鸟瞰澳大利亚/Over Australia (2017)4K高清下载/9.99GB

[复制链接]

2566

主题

2890

帖子

2万

积分

超级版主

Rank: 8Rank: 8

积分
24032
 楼主| 发表于 2021-10-10 10:11:18 | 显示全部楼层 |阅读模式
本帖最后由 叽里呱啦 于 2021-10-10 10:11 编辑

QQ图片20210930115510_副本_副本.png

◎译  名 鸟瞰澳大利亚
◎片  名 Over Australia
◎年  代 2017
◎国  家 加拿大
◎类  别 纪录片
◎语  言 英语
◎上映日期 2017-09-28(加拿大)
◎IMDb评分  7.9/10 from 11 users  
◎IMDb链接  https://www.imdb.com/title/tt7497056/
◎豆瓣评分 0/10 from 0 users
◎豆瓣链接 https://movie.douban.com/subject/35245674/
◎集       数 2
◎主  演 Michael Goldman


◎简  介


          这是关于澳大利亚的两部分系列。第 1 部分的标题是“干旱之心”,第 2 部分是“大分水岭”。

General
Complete name                  : E:\Over.Australia.S01E02.The.Great.Divide.iNTERNAL.2160p.UHDTV.H265-CBFM.mkv
Format                         : Matroska
Format version                 : Version 4
File size                      : 4.97 GiB
Duration                       : 46 min 0 s
Overall bit rate               : 15.5 Mb/s
Encoded date                   : UTC 2021-07-10 20:02:34
Writing application            : mkvmerge v57.0.0 ('Till The End') 64-bit
Writing library                : libebml v1.4.2 + libmatroska v1.6.4
IsTruncated                    : Yes

Video
ID                             : 1
Format                         : HEVC
Format/Info                    : High Efficiency Video Coding
Format profile                 : Main 10@L5.1@Main
Codec ID                       : V_MPEGH/ISO/HEVC
Duration                       : 46 min 0 s
Bit rate                       : 15.0 Mb/s
Width                          : 3 840 pixels
Height                         : 2 160 pixels
Display aspect ratio           : 16:9
Frame rate mode                : Constant
Frame rate                     : 50.000 FPS
Standard                       : Component
Color space                    : YUV
Chroma subsampling             : 4:2:0
Bit depth                      : 10 bits
Bits/(Pixel*Frame)             : 0.036
Stream size                    : 4.83 GiB (97%)
Default                        : Yes
Forced                         : No
Color range                    : Limited
Color primaries                : BT.709
Transfer characteristics       : BT.709
Matrix coefficients            : BT.709

Audio
ID                             : 2
Format                         : MPEG Audio
Format version                 : Version 1
Format profile                 : Layer 2
Codec ID                       : A_MPEG/L2
Codec ID/Hint                  : MP2
Duration                       : 46 min 0 s
Bit rate mode                  : Constant
Bit rate                       : 128 kb/s
Channel(s)                     : 2 channels
Sampling rate                  : 48.0 kHz
Compression mode               : Lossy
Delay relative to video        : 69 ms
Stream size                    : 42.1 MiB (1%)
Language                       : English
Default                        : Yes
Forced                         : No

下载链接


****此区域为收费内容****    需支付 15 金币后可查看立即购买






上一篇:巨鳄风暴 / Crawl (2019) 4K高清版本下载/18.17GB
下一篇:极道公主 / Yakuza Princess (2019) 4K高清版本下载/11.84GB
回复

使用道具 举报

1

主题

1685

帖子

4663

积分

4K家园VIP

Rank: 9Rank: 9Rank: 9

积分
4663
发表于 2021-10-10 10:11:23 | 显示全部楼层
OMG!介是啥东东!!!
回复 支持 反对

使用道具 举报

0

主题

5940

帖子

1万

积分

4K家园VIP

Rank: 9Rank: 9Rank: 9

积分
14188
发表于 2021-10-10 11:05:09 | 显示全部楼层
鳥瞰澳大利亞4k
回复 支持 反对

使用道具 举报

0

主题

1312

帖子

3786

积分

4K家园VIP

Rank: 9Rank: 9Rank: 9

积分
3786
发表于 5 天前 | 显示全部楼层
顶起顶起顶起
回复 支持 反对

使用道具 举报

2

主题

1625

帖子

4461

积分

4K家园VIP

Rank: 9Rank: 9Rank: 9

积分
4461
发表于 前天 03:09 | 显示全部楼层
我也是坐沙发的
回复 支持 反对

使用道具 举报

您需要登录后才可以回帖 登录 | 立即注册

本版积分规则

精彩图文
Archiver|手机版|TAG|Sitemap|新帖|专题|联系我们:邮箱: 4kjia.com@gmail.com   

4k家园   ©2019