[4K电影] 极道公主 / Yakuza Princess (2019) 4K高清版本下载/11.84GB

[复制链接]

28

主题

32

帖子

330

积分

版主

Rank: 7Rank: 7Rank: 7

积分
330
 楼主| 发表于 2021-9-30 13:59:47 | 显示全部楼层 |阅读模式
本帖最后由 美剧小虾 于 2021-9-30 20:13 编辑

QQ图片20210930134939_副本.png

◎译  名 极道公主
◎片  名 Yakuza Princess
◎年  代 2021
◎产  地 巴西
◎类  别 惊悚
◎语  言 英语
◎上映日期 2021-09-03(美国)
◎IMDb评分  4.5/10 from 494 users
◎IMDb链接  https://www.imdb.com/title/tt10715446/
◎豆瓣评分 /10 from 0 users
◎豆瓣链接 https://movie.douban.com/subject/35156095/
◎片  长 111分钟
◎导  演 威森特·阿莫里姆 Vicente Amorim
◎编  剧 威森特·阿莫里姆 Vicente Amorim
◎主  演 乔纳森·莱斯·梅耶斯 Jonathan Rhys Meyers
        伊原刚志 Tsuyoshi Ihara
        肯尼·梁 Kenny Leu
        尾崎英二郎 Eijiro Ozaki
        查尔斯·帕拉文蒂 Charles Paraventi
        尼可拉斯·特列维扬诺 Nicolas Trevijano



◎简  介

  围绕巴西圣保罗最大的日本侨民社区展开,讲述了孤儿Akemi(Masumi饰)发现自己是黑道犯罪集团一半的继承人,她在与一个失忆的陌生人(莱斯·梅耶斯饰)结成联盟后,Akemi相信是一把古老的剑将他们两人的命运捆绑在一起,她向想要她死的另一半犯罪集团发动了战争。
General
Complete name                  : E:\Yakuza.Princess.2021.2160p.WEB-DL.DDP5.1.Atmos.HDR.HEVC-EVO.mkv
Format                         : Matroska
Format version                 : Version 4
File size                      : 11.7 GiB
Duration                       : 1 h 51 min
Overall bit rate               : 15.0 Mb/s
Encoded date                   : UTC 2021-09-30 00:50:46
Writing application            : mkvmerge v19.0.0 ('Brave Captain') 64-bit
Writing library                : libebml v1.3.5 + libmatroska v1.4.8
IsTruncated                    : Yes

Video
ID                             : 1
Format                         : HEVC
Format/Info                    : High Efficiency Video Coding
Format profile                 : Main 10@L5@High
HDR format                     : SMPTE ST 2086, HDR10 compatible
Codec ID                       : V_MPEGH/ISO/HEVC
Duration                       : 1 h 51 min
Bit rate                       : 14.0 Mb/s
Width                          : 3 840 pixels
Height                         : 1 608 pixels
Display aspect ratio           : 2.40:1
Frame rate mode                : Constant
Frame rate                     : 23.976 (24000/1001) FPS
Color space                    : YUV
Chroma subsampling             : 4:2:0 (Type 2)
Bit depth                      : 10 bits
Bits/(Pixel*Frame)             : 0.094
Stream size                    : 10.9 GiB (93%)
Default                        : Yes
Forced                         : No
Color range                    : Limited
Color primaries                : BT.2020
Transfer characteristics       : PQ
Matrix coefficients            : BT.2020 non-constant
Mastering display color primar : BT.2020
Mastering display luminance    : min: 0.0050 cd/m2, max: 1000 cd/m2
Maximum Content Light Level    : 4419 cd/m2
Maximum Frame-Average Light Le : 1344 cd/m2

Audio
ID                             : 2
Format                         : E-AC-3 JOC
Format/Info                    : Enhanced AC-3 with Joint Object Coding
Commercial name                : Dolby Digital Plus with Dolby Atmos
Codec ID                       : A_EAC3
Duration                       : 1 h 51 min
Bit rate mode                  : Constant
Bit rate                       : 768 kb/s
Channel(s)                     : 6 channels
Channel layout                 : L R C LFE Ls Rs
Sampling rate                  : 48.0 kHz
Frame rate                     : 31.250 FPS (1536 SPF)
Compression mode               : Lossy
Stream size                    : 611 MiB (5%)
Title                          : English
Language                       : English
Service kind                   : Complete Main
Default                        : No
Forced                         : No
Complexity index               : 16
Number of dynamic objects      : 15
Bed channel count              : 1 channel
Bed channel configuration      : LFE

下载地址

****此区域为收费内容****    需支付 9 金币后可查看立即购买

****此区域为收费内容****    需支付 9 金币后可查看立即购买

游客,如果您要查看本帖隐藏内容请回复

游客,如果您要查看本帖隐藏内容请回复






上一篇:纪录片/鸟瞰澳大利亚/Over Australia (2017)4K高清下载/9.99GB
下一篇:致胜女王 / Queenpins‎ (2021) 4K高清版本下载/11.58GB
回复

使用道具 举报

1

主题

1327

帖子

3999

积分

4K家园VIP

Rank: 9Rank: 9Rank: 9

积分
3999
发表于 2021-9-30 19:56:49 来自手机 | 显示全部楼层
感谢楼主发帖,前排顶起
回复 支持 反对

使用道具 举报

46

主题

1460

帖子

4224

积分

4K家园VIP

Rank: 9Rank: 9Rank: 9

积分
4224
发表于 2021-10-5 09:57:33 | 显示全部楼层
鄙视楼下的顶帖没我快,哈哈
回复 支持 反对

使用道具 举报

2

主题

1673

帖子

4649

积分

4K家园VIP

Rank: 9Rank: 9Rank: 9

积分
4649
发表于 2021-10-7 10:01:21 | 显示全部楼层
确实不错,顶先
回复 支持 反对

使用道具 举报

0

主题

1595

帖子

4415

积分

4K家园VIP

Rank: 9Rank: 9Rank: 9

积分
4415
发表于 2021-10-7 20:33:08 | 显示全部楼层
感谢楼主发帖,前排顶起
回复 支持 反对

使用道具 举报

2

主题

1345

帖子

3885

积分

4K家园VIP

Rank: 9Rank: 9Rank: 9

积分
3885
发表于 2021-10-8 18:44:04 | 显示全部楼层
4K电影下个试试
回复 支持 反对

使用道具 举报

您需要登录后才可以回帖 登录 | 立即注册

本版积分规则

精彩图文
Archiver|手机版|TAG|Sitemap|新帖|专题|联系我们:邮箱: 4kjia.com@gmail.com   

4k家园   ©2019