[4K电影] 美国之夜 / American Night (2021) 4K高清版本下载/10.71GB

[复制链接]

948

主题

1009

帖子

8533

积分

超级版主

Rank: 8Rank: 8

积分
8533
 楼主| 发表于 2021-10-1 20:34:33 | 显示全部楼层 |阅读模式
QQ图片20211001203040_副本.png

◎译  名 美国之夜
◎片  名 American Night
◎年  代 2021
◎产  地 意大利
◎类  别 动作 / 惊悚
◎语  言 英语
◎上映日期 2021-10-22(意大利)
◎IMDb评分  7.8/10 from 18 users
◎IMDb链接  https://www.imdb.com/title/tt5344054/
◎豆瓣评分 /10 from 0 users
◎豆瓣链接 https://movie.douban.com/subject/33433368/
◎导  演 阿莱西奥·德拉·瓦勒 Alessio Della Valle
◎编  剧 阿莱西奥·德拉·瓦勒 Alessio Della Valle
◎主  演 帕斯·贝加 Paz Vega
      乔纳森·莱斯·梅耶斯 Jonathan Rhys Meyers
      埃米尔·赫斯基 Emile Hirsch
      杰里米·皮文 Jeremy Piven
      玛丽亚·格拉齐亚·库奇诺塔 Maria Grazia Cucinotta
      玛拉莱恩 Mara Lane
      马克·莱昂纳蒂 Marco Leonardi
      福图纳多 塞林诺 Fortunato Cerlino
      大卫·柯克·特雷勒 David Kirk Traylor
      安娜加西亚 Anastacia
      莱乔·瓦斯列夫 Raicho Vasilev
      Paudge Behan Paudge Behan
      Martina Vachkova Martina Vachkova
      Donatella Pompadour Donatella Pompadour



◎简  介

  乔纳森·莱斯·梅耶斯、埃米尔·赫斯基、帕斯·贝加([对她说])、杰里米·皮文([明日边缘])将携手出演黑色惊悚片[美国之夜](American Night,暂译)。影片将是Alessio Jim Della Valle的导演处女作,Valle亲自撰写剧本。影片讲述迈克尔·鲁比诺(赫斯基饰)刚刚成为纽约黑手党的头目,但他最大的梦想是将自己的一生奉献给绘画,并成为伟大的艺术家。艺术品经销商约翰·卡普兰(梅耶斯饰)的生活似乎一片混乱,但他仍拥有最能发现世界各地假货的双眼。当安迪·沃霍尔的《粉红玛丽莲》被偷走时,陌生的两人有了交集,而这一切也将颠覆他们的生活。
Video
ID : 1
Format : HEVC
Format/Info : High Efficiency Video Coding
Format profile : Main 10@L5@High
Codec ID : V_MPEGH/ISO/HEVC
Duration : 2 h 3 min
Bit rate : 12.0 Mb/s
Width : 3 828 pixels
Height : 1 596 pixels
Display aspect ratio : 2.40:1
Frame rate mode : Constant
Frame rate : 23.976 FPS
Color space : YUV
Chroma subsampling : 4:2:0
Bit depth : 10 bits
Bits/(Pixel*Frame) : 0.082
Stream size : 10.4 GiB (97%)
Default : Yes
Forced : No
Color range : Limited
Color primaries : BT.709
Transfer characteristics : BT.709
Matrix coefficients : BT.709

Audio
ID : 2
Format : AC-3
Format/Info : Audio Coding 3
Commercial name : Dolby Digital
Codec ID : A_AC3
Duration : 2 h 3 min
Bit rate mode : Constant
Bit rate : 384 kb/s
Channel(s) : 6 channels
Channel layout : L R C LFE Ls Rs
Sampling rate : 48.0 kHz
Frame rate : 31.250 FPS (1536 SPF)
Compression mode : Lossy
Stream size : 340 MiB (3%)
Title : English
Language : English
Service kind : Complete Main
Default : No
Forced : No

Text
ID : 3
Format : UTF-8
Codec ID : S_TEXT/UTF8
Codec ID/Info : UTF-8 Plain Text
Duration : 1 h 59 min
Bit rate : 38 b/s
Count of elements : 1192
Stream size : 33.6 KiB (0%)
Language : English
Default : Yes
Forced : No

迅雷下载资源速度为零,资源敏感或被和谐时,推荐使用qBittorrent等无限速下载软件,有条件的推荐115更好的下载软件!


下载地址

美国之夜(10.71GB)American.Night.2021.2160p.WEB-DL.x265.10bit.SDR.DD5.1-NOGRP.t.torrent (14.03 KB, 售价: 9 金币)

上一篇:暗黑之夜(内封中字)/Black as Night (2021) 4K高清版本下载/9.44GB
下一篇:纽瓦克众圣 / The Many Saints of Newark (2021) 4K高清版本下载/15.75GB
回复

使用道具 举报

2

主题

1139

帖子

3433

积分

4K家园VIP

Rank: 9Rank: 9Rank: 9

积分
3433
发表于 2021-10-1 20:34:38 | 显示全部楼层
介是神马?!!
回复 支持 反对

使用道具 举报

1

主题

1426

帖子

4078

积分

4K家园VIP

Rank: 9Rank: 9Rank: 9

积分
4078
发表于 2021-10-1 22:04:08 来自手机 | 显示全部楼层
什么东西啊
回复 支持 反对

使用道具 举报

3

主题

1246

帖子

3756

积分

4K家园VIP

Rank: 9Rank: 9Rank: 9

积分
3756
发表于 2021-10-2 05:45:18 | 显示全部楼层
求沙发
回复 支持 反对

使用道具 举报

1

主题

1331

帖子

3829

积分

4K家园VIP

Rank: 9Rank: 9Rank: 9

积分
3829
发表于 2021-10-2 06:07:17 | 显示全部楼层
占坑编辑ing
回复 支持 反对

使用道具 举报

50

主题

1414

帖子

4144

积分

4K家园VIP

Rank: 9Rank: 9Rank: 9

积分
4144
发表于 2021-10-2 08:12:34 | 显示全部楼层
多谢楼主分享
回复 支持 反对

使用道具 举报

0

主题

6

帖子

639

积分

4K家园VIP

Rank: 9Rank: 9Rank: 9

积分
639
发表于 2021-10-2 19:01:15 | 显示全部楼层
字幕在哪里啊,哥哥
回复 支持 反对

使用道具 举报

0

主题

5

帖子

18

积分

新手上路

Rank: 1

积分
18
发表于 2021-10-3 01:22:28 来自手机 | 显示全部楼层
好好聚聚
回复

使用道具 举报

0

主题

23

帖子

185

积分

新手上路

Rank: 1

积分
185
发表于 2021-10-5 09:18:06 | 显示全部楼层

多谢楼主分享
回复 支持 反对

使用道具 举报

0

主题

23

帖子

185

积分

新手上路

Rank: 1

积分
185
发表于 2021-10-8 11:32:31 | 显示全部楼层
多谢楼主分享
回复 支持 反对

使用道具 举报

您需要登录后才可以回帖 登录 | 立即注册

本版积分规则

精彩图文
Archiver|手机版|TAG|Sitemap|新帖|专题|联系我们:邮箱: 4kjia.com@gmail.com   

4k家园   ©2019