[4K电影] 纽瓦克众圣 / The Many Saints of Newark (2021) 4K高清版本下载/15.75GB

[复制链接]

948

主题

1009

帖子

8533

积分

超级版主

Rank: 8Rank: 8

积分
8533
 楼主| 发表于 2021-10-1 20:42:49 | 显示全部楼层 |阅读模式
本帖最后由 最爱4K哟 于 2021-10-1 21:13 编辑

QQ图片20211001211116_副本.png

◎译  名 纽瓦克众圣/The Many Saints of Newark: A Sopranos Story/纽瓦克众圣徒:黑道家族外传/纽瓦克的诸多圣人/纽瓦克诸圣/黑道家族前传
◎片  名 The Many Saints of Newark
◎年  代 2021
◎产  地 美国
◎类  别 剧情 / 犯罪
◎语  言 英语
◎上映日期 2021-10-01(美国/美国网络)
◎IMDb评分  7.3/10 from 2440 users
◎IMDb链接  https://www.imdb.com/title/tt8110232/
◎豆瓣评分 /10 from 0 users
◎豆瓣链接 https://movie.douban.com/subject/30165027/
◎片  长 120分钟
◎导  演 阿兰·泰勒 Alan Taylor
◎编  剧 劳伦斯·康纳尔 Lawrence Konner / 大卫·切斯 David Chase
◎主  演 迈克尔·甘多菲尼 Michael Gandolfini
      亚历桑德罗·尼沃拉 Alessandro Nivola
      维拉·法米加 Vera Farmiga
      乔·博恩瑟 Jon Bernthal
      小莱斯利·奥多姆 Leslie Odom Jr.
      寇瑞·斯托尔 Corey Stoll
      比利·马格努森 Billy Magnussen
      约翰·马加罗 John Magaro
      雷·利奥塔 Ray Liotta
      达里尔·爱德华兹 Daryl Edwards
      尼克·瓦莱隆加 Nick Vallelonga
      马提亚·孔福尔迪 Mattea Conforti
      德琼·瓦茨 De'Jon Watts
      法龙·索尔兹伯里 Faron Salisbury
      杰玛·特雷尔·加德纳 Germar Terrell Gardner
      安德鲁·波尔克 Andrew Polk
      肯·斯拉迪克 Ken Sladyk
      Sasha Morfaw Sasha Morfaw
      小戴维·M·桑多瓦尔 David M Sandoval Jr.
      Audrey Bennett Audrey Bennett
      伊恩·安特曼 Ian Unterman
      小弗洛伊德·安东尼·约翰 Floyd Anthony Johns Jr.
      克劳黛特·拉利 Claudette Lali
      斯蒂芬妮·林恩·威尔逊 Stephanie Lynn Wilson
      迈克尔·温·古查多 Michael Wren Gucciardo
      阿梅利亚·福勒 Amelia Fowler
      克里斯·勒潘塔 Chris LaPanta
      Edward Sass III Edward Sass III
      克雷格·格拉提 Craig Geraghty
       迈克尔·泽加斯基 Michael Zegarski
       Germir Robinson



◎简  介

   根据HBO大热剧集《黑道家族》改编的电影将问世,新线正在打造该剧前传电影[纽瓦克圣人](The Many Saints of Newark,暂译)。原剧编剧兼监制大卫·切斯及编剧劳伦斯·康纳尔操刀新片剧本,大卫·切斯任制片。影片故事背景设定在上世纪60年代纽瓦克暴力活动猖獗地带,黑帮争斗频发。该剧于1999年至2007年播出,共六季,获21项艾美奖、5项金球奖。原剧主演詹姆斯·甘多菲尼、弗兰克·文森特相继于2013年、去年去世。据悉原剧中多个粉丝熟悉的形象将现身大银幕。
Video
ID : 1
Format : HEVC
Format/Info : High Efficiency Video Coding
Format profile : Main 10@L5@Main
HDR format : Dolby Vision, Version 1.0, dvhe.05.06, BL+RPU
Codec ID : V_MPEGH/ISO/HEVC
Duration : 2 h 0 min
Bit rate : 17.6 Mb/s
Width : 3 840 pixels
Height : 2 160 pixels
Display aspect ratio : 16:9
Frame rate mode : Constant
Frame rate : 23.976 (24000/1001/189150) FPS
Color space : YUV
Chroma subsampling : 4:2:0
Bit depth : 10 bits
Bits/(Pixel*Frame) : 0.089
Stream size : 14.8 GiB (94%)
Writing library : x265 3.4hy:[Linux][GCC 7.5.0][64 bit] 10bit
Encoding settings : cpuid=1111039 / frame-threads=6 / no-wpp / no-pmode / no-pme / no-psnr / no-ssim / log-level=2 / input-csp=1 / input-res=3840x2160 / interlace=0 / total-frames=0 / level-idc=0 / high-tier=1 / uhd-bd=0 / ref=4 / no-allow-non-conformance / repeat-headers / annexb / aud / hrd / info / hash=0 / no-temporal-layers / no-open-gop / min-keyint=96 / keyint=96 / gop-lookahead=0 / bframes=4 / b-adapt=2 / b-pyramid / bframe-bias=0 / rc-lookahead=25 / lookahead-slices=4 / scenecut=40 / hist-scenecut=0 / radl=0 / no-splice / no-intra-refresh / ctu=64 / min-cu-size=8 / rect / no-amp / max-tu-size=32 / tu-inter-depth=1 / tu-intra-depth=1 / limit-tu=0 / rdoq-level=2 / dynamic-rd=0.00 / no-ssim-rd / signhide / no-tskip / nr-intra=0 / nr-inter=0 / no-constrained-intra / strong-intra-smoothing / max-merge=3 / limit-refs=3 / limit-modes / me=3 / subme=3 / merange=57 / temporal-mvp / no-frame-dup / no-hme / weightp / no-weightb / no-analyze-src-pics / deblock=0:0 / sao / no-sao-non-deblock / rd=4 / selective-sao=4 / no-early-skip / rskip / no-fast-intra / no-tskip-fast / no-cu-lossless / no-b-intra / no-splitrd-skip / rdpenalty=0 / psy-rd=2.00 / psy-rdoq=1.00 / no-rd-refine / no-lossless / cbqpoffs=0 / crqpoffs=3 / rc=abr / bitrate=18000 / qcomp=0.60 / qpstep=4 / stats-write=0 / stats-read=2 / cplxblur=20.0 / qblur=0.5 / vbv-maxrate=24500 / vbv-bufsize=24500 / vbv-init=0.6 / vbv-end=0.6 / vbv-end-fr-adj=0.0 / ipratio=1.40 / pbratio=1.30 / aq-mode=2 / aq-strength=1.00 / cutree / zone-count=0 / no-strict-cbr / qg-size=32 / no-rc-grain / qpmax=69 / qpmin=0 / no-const-vbv / sar=1 / overscan=0 / videoformat=5 / range=1 / colorprim=2 / transfer=2 / colormatrix=2 / chromaloc=0 / display-window=0 / cll=0,0 / min-luma=0 / max-luma=1023 / log2-max-poc-lsb=8 / vui-timing-info / vui-hrd-info / no-concatenation / slices=1 / no-opt-qp-pps / no-opt-ref-list-length-pps / no-multi-pass-opt-rps / scenecut-bias=0.05 / hist-threshold=0.01 / no-opt-cu-delta-qp / no-aq-motion / no-hdr10 / no-hdr10-opt / no-dhdr10-opt / no-idr-recovery-sei / analysis-reuse-level=0 / analysis-save-reuse-level=0 / analysis-load-reuse-level=0 / scale-factor=0 / refine-intra=0 / refine-inter=0 / refine-mv=1 / refine-ctu-distortion=0 / no-limit-sao / ctu-info=0 / no-lowpass-dct / refine-analysis-type=0 / copy-pic=1 / max-ausize-factor=1.0 / no-dynamic-refine / no-single-sei / no-hevc-aq / no-svt / no-field / qp-adaptation-range=1.00 / no-scenecut-aware-qpconformance-window-offsets / right=0 / bottom=0 / decoder-max-rate=0
Default : Yes
Forced : No
Color range : Full

Audio
ID : 2
Format : E-AC-3 JOC
Format/Info : Enhanced AC-3 with Joint Object Coding
Commercial name : Dolby Digital Plus with Dolby Atmos
Codec ID : A_EAC3
Duration : 2 h 0 min
Bit rate mode : Constant
Bit rate : 768 kb/s
Channel(s) : 6 channels
Channel layout : L R C LFE Ls Rs
Sampling rate : 48.0 kHz
Frame rate : 31.250 FPS (1536 SPF)
Compression mode : Lossy
Stream size : 661 MiB (4%)
Language : English
Service kind : Complete Main
Default : Yes
Forced : No
Complexity index : 16
Number of dynamic objects : 15
Bed channel count : 1 channel
Bed channel configuration : LFE

Text #1
ID : 3
Format : UTF-8
Codec ID : S_TEXT/UTF8
Codec ID/Info : UTF-8 Plain Text
Title : English
Language : English
Default : No
Forced : No

Text #2
ID : 4
Format : UTF-8
Codec ID : S_TEXT/UTF8
Codec ID/Info : UTF-8 Plain Text
Title : Latin America Spanish
Language : Spanish
Default : No
Forced : No

迅雷下载资源速度为零,资源敏感或被和谐时,推荐使用qBittorrent等无限速下载软件,有条件的推荐115更好的下载软件!


下载地址
QQ图片20211001211116_副本111.png
游客,如果您要查看本帖隐藏内容请回复

游客,如果您要查看本帖隐藏内容请回复

游客,如果您要查看本帖隐藏内容请回复







上一篇:美国之夜 / American Night (2021) 4K高清版本下载/10.71GB
下一篇:最危险游戏 (电影版) (2020) 4K高清版本下载/14.31GB
回复

使用道具 举报

1

主题

1294

帖子

3728

积分

4K家园VIP

Rank: 9Rank: 9Rank: 9

积分
3728
发表于 2021-10-1 20:42:53 | 显示全部楼层
垃圾
回复 支持 反对

使用道具 举报

41

主题

1482

帖子

4244

积分

4K家园VIP

Rank: 9Rank: 9Rank: 9

积分
4244
发表于 2021-10-3 15:07:02 | 显示全部楼层
very good
回复 支持 反对

使用道具 举报

0

主题

23

帖子

185

积分

新手上路

Rank: 1

积分
185
发表于 2021-10-3 22:27:20 | 显示全部楼层

very good
回复

使用道具 举报

0

主题

76

帖子

600

积分

新手上路

Rank: 1

积分
600
发表于 2021-10-4 12:32:56 | 显示全部楼层
感谢楼主
回复

使用道具 举报

2

主题

1256

帖子

3786

积分

4K家园VIP

Rank: 9Rank: 9Rank: 9

积分
3786
发表于 2021-10-7 09:18:14 | 显示全部楼层
广告位,,坐下看看
回复 支持 反对

使用道具 举报

0

主题

1307

帖子

3743

积分

4K家园VIP

Rank: 9Rank: 9Rank: 9

积分
3743
发表于 2021-10-8 15:03:18 | 显示全部楼层
学习下
回复 支持 反对

使用道具 举报

44

主题

1469

帖子

4225

积分

4K家园VIP

Rank: 9Rank: 9Rank: 9

积分
4225
发表于 2021-10-8 16:05:20 来自手机 | 显示全部楼层
4K家园资源最近貌似越来越多了
回复 支持 反对

使用道具 举报

0

主题

23

帖子

185

积分

新手上路

Rank: 1

积分
185
发表于 2021-10-15 19:58:38 | 显示全部楼层
感谢楼主
回复

使用道具 举报

您需要登录后才可以回帖 登录 | 立即注册

本版积分规则

精彩图文
Archiver|手机版|TAG|Sitemap|新帖|专题|联系我们:邮箱: 4kjia.com@gmail.com   

4k家园   ©2019