[4K电影] 最危险游戏 (电影版) (2020) 4K高清版本下载/14.31GB

[复制链接]

942

主题

1003

帖子

8494

积分

超级版主

Rank: 8Rank: 8

积分
8494
 楼主| 发表于 2021-10-2 15:32:25 | 显示全部楼层 |阅读模式
本帖最后由 最爱4K哟 于 2021-10-2 15:41 编辑

QQ图片20211002152022_副本.png

◎译  名 最危险游戏/最危险的游戏/Dodge and Miles
◎片  名 Most Dangerous Game
◎年  代 2020
◎产  地 美国
◎类  别 动作/惊悚
◎语  言 英语
◎上映日期 2020-04-06(美国)
◎IMDb评分  7.6/10 from 473 users
◎IMDb链接  https://www.imdb.com/title/tt10580064/
◎豆瓣评分 6.8/10 from 340 users
◎豆瓣链接 https://douban.com/subject/34815016/
◎导  演 菲尔·亚伯拉罕 Phil Abraham
◎编  剧 尼克·桑多拉 Nick Santora
◎主  演 利亚姆·海姆斯沃斯 Liam Hemsworth
       克里斯托弗·瓦尔兹 Christoph Waltz
       莎拉·加顿 Sarah Gadon
       亚伦·普尔 Aaron Poole
       吉米·耶肯博拉 Jimmy Akingbola
       刘承羽 Natasha Liu Bordizzo
       比利·伯克 Billy Burke
       扎克·切利 Zach Cherry
       帕特里克·加洛 Patrick Garrow
       泰勒·拉芙 Taylor Love
       安德鲁·舍夫 Andrew Shaver
       达林·贝克 Darrin Baker
       卡罗林纳·巴特察克 Carolina Bartczak
       Chris Kotcher
       李亚男·普瓦里埃·格林菲尔德 Leanne Poirier Greenfield
       阿尔·萨皮恩扎 Al Sapienza
       查得·卡米列里 Chad Camilleri
       布兰登·麦克奈特 Brandon McKnight
       沃伦·贝尔 Warren Belle


◎简  介



         道奇梅纳德急于在绝症夺走他的生命之前照顾他怀孕的妻子,他接受了参加一场致命游戏的邀请,他很快发现自己不是猎人——而是猎物。
General
Complete name                  : E:\4K@电影\Most.Dangerous.Game.2020.ITA-ENG.2160p.WEB-DL.DDP5.1.HDR.H.265-gattopollo.mkv
Format                         : Matroska
Format version                 : Version 4
File size                      : 14.3 GiB
Duration                       : 2 h 7 min
Overall bit rate               : 16.0 Mb/s
Encoded date                   : UTC 2021-10-01 21:42:32
Writing application            : mkvmerge v61.0.0 ('So') 64-bit
Writing library                : libebml v1.4.2 + libmatroska v1.6.4

Video
ID                             : 1
Format                         : HEVC
Format/Info                    : High Efficiency Video Coding
Format profile                 : Main 10@L5@Main
HDR format                     : SMPTE ST 2094 App 4, Version 1, HDR10+ Profile B compatible
Codec ID                       : V_MPEGH/ISO/HEVC
Duration                       : 2 h 7 min
Bit rate                       : 14.4 Mb/s
Width                          : 3 840 pixels
Height                         : 2 160 pixels
Display aspect ratio           : 16:9
Frame rate mode                : Constant
Frame rate                     : 23.976 (24000/1001) FPS
Color space                    : YUV
Chroma subsampling             : 4:2:0
Bit depth                      : 10 bits
Bits/(Pixel*Frame)             : 0.072
Stream size                    : 12.9 GiB (90%)
Language                       : English
Default                        : Yes
Forced                         : No
Color range                    : Limited
Color primaries                : BT.2020
Transfer characteristics       : PQ
Matrix coefficients            : BT.2020 non-constant
Mastering display color primar : Display P3
Mastering display luminance    : min: 0.0001 cd/m2, max: 1000 cd/m2
Maximum Content Light Level    : 1000 cd/m2
Maximum Frame-Average Light Le : 443 cd/m2

Audio #1
ID                             : 2
Format                         : E-AC-3
Format/Info                    : Enhanced AC-3
Commercial name                : Dolby Digital Plus
Codec ID                       : A_EAC3
Duration                       : 2 h 7 min
Bit rate mode                  : Constant
Bit rate                       : 640 kb/s
Channel(s)                     : 6 channels
Channel layout                 : L R C LFE Ls Rs
Sampling rate                  : 48.0 kHz
Frame rate                     : 31.250 FPS (1536 SPF)
Compression mode               : Lossy
Stream size                    : 586 MiB (4%)
Title                          : Italian
Language                       : Italian
Service kind                   : Complete Main
Default                        : Yes
Forced                         : No

Audio #2
ID                             : 3
Format                         : E-AC-3
Format/Info                    : Enhanced AC-3
Commercial name                : Dolby Digital Plus
Codec ID                       : A_EAC3
Duration                       : 2 h 7 min
Bit rate mode                  : Constant
Bit rate                       : 640 kb/s
Channel(s)                     : 6 channels
Channel layout                 : L R C LFE Ls Rs
Sampling rate                  : 48.0 kHz
Frame rate                     : 31.250 FPS (1536 SPF)
Compression mode               : Lossy
Stream size                    : 586 MiB (4%)
Title                          : English
Language                       : English
Service kind                   : Complete Main
Default                        : No
Forced                         : No

Text #1
ID                             : 4
Format                         : UTF-8
Codec ID                       : S_TEXT/UTF8
Codec ID/Info                  : UTF-8 Plain Text
Title                          : Italian [Forced]
Language                       : Italian
Default                        : Yes
Forced                         : Yes

Text #2
ID                             : 5
Format                         : UTF-8
Codec ID                       : S_TEXT/UTF8
Codec ID/Info                  : UTF-8 Plain Text
Title                          : Italian
Language                       : Italian
Default                        : No
Forced                         : No

Text #3
ID                             : 6
Format                         : UTF-8
Codec ID                       : S_TEXT/UTF8
Codec ID/Info                  : UTF-8 Plain Text
Title                          : English
Language                       : English
Default                        : No
Forced                         : No

Text #4
ID                             : 7
Format                         : UTF-8
Codec ID                       : S_TEXT/UTF8
Codec ID/Info                  : UTF-8 Plain Text
Title                          : English [SDH]
Language                       : English
Default                        : No
Forced                         : No

迅雷下载资源速度为零,资源敏感或被和谐时,推荐使用qBittorrent等无限速下载软件,有条件的推荐115更好的下载软件!

下载地址

游客,如果您要查看本帖隐藏内容请回复







QQ图片20211002152022_副本.png

上一篇:纽瓦克众圣 / The Many Saints of Newark (2021) 4K高清版本下载/15.75GB
下一篇:Blush (内封中字)(2021) 4K高清版本下载/1.98GB
回复

使用道具 举报

942

主题

1003

帖子

8494

积分

超级版主

Rank: 8Rank: 8

积分
8494
 楼主| 发表于 2021-10-2 15:43:33 | 显示全部楼层
Most.Dangerous.Game.2020.ITA-ENG.2160p.WEB-DL.DDP5.1.HDR.H.265-gattopollo.mkv_20.jpg Most.Dangerous.Game.2020.ITA-ENG.2160p.WEB-DL.DDP5.1.HDR.H.265-gattopollo.mkv_20.jpg Most.Dangerous.Game.2020.ITA-ENG.2160p.WEB-DL.DDP5.1.HDR.H.265-gattopollo.mkv_20.jpg Most.Dangerous.Game.2020.ITA-ENG.2160p.WEB-DL.DDP5.1.HDR.H.265-gattopollo.mkv_20.jpg Most.Dangerous.Game.2020.ITA-ENG.2160p.WEB-DL.DDP5.1.HDR.H.265-gattopollo.mkv_20.jpg Most.Dangerous.Game.2020.ITA-ENG.2160p.WEB-DL.DDP5.1.HDR.H.265-gattopollo.mkv_20.jpg
回复 支持 反对

使用道具 举报

46

主题

1389

帖子

3995

积分

4K家园VIP

Rank: 9Rank: 9Rank: 9

积分
3995
发表于 2021-10-2 15:32:29 | 显示全部楼层
看着好像不错
回复 支持 反对

使用道具 举报

40

主题

1486

帖子

4254

积分

4K家园VIP

Rank: 9Rank: 9Rank: 9

积分
4254
发表于 2021-10-2 15:32:29 | 显示全部楼层
支持你哈...................................
回复 支持 反对

使用道具 举报

56

主题

1408

帖子

4058

积分

4K家园VIP

Rank: 9Rank: 9Rank: 9

积分
4058
发表于 2021-10-2 16:16:12 | 显示全部楼层
没看懂
回复 支持 反对

使用道具 举报

0

主题

4

帖子

15

积分

新手上路

Rank: 1

积分
15
发表于 2021-10-2 17:57:23 来自手机 | 显示全部楼层
感谢分享
回复

使用道具 举报

0

主题

1279

帖子

3849

积分

4K家园VIP

Rank: 9Rank: 9Rank: 9

积分
3849
发表于 2021-10-2 19:41:29 | 显示全部楼层
哈哈,我只看看不说话
回复 支持 反对

使用道具 举报

3

主题

1619

帖子

4425

积分

4K家园VIP

Rank: 9Rank: 9Rank: 9

积分
4425
发表于 2021-10-2 22:38:20 | 显示全部楼层
看帖要回,回帖才健康,在踩踩,楼主辛苦了!
回复 支持 反对

使用道具 举报

0

主题

46

帖子

5486

积分

高级会员

Rank: 3Rank: 3

积分
5486
发表于 2021-10-2 23:16:20 | 显示全部楼层
谢谢分享=======
回复 支持 反对

使用道具 举报

0

主题

1

帖子

10

积分

新手上路

Rank: 1

积分
10
发表于 2021-10-3 11:44:26 | 显示全部楼层
66666666666666666666
回复 支持 反对

使用道具 举报

您需要登录后才可以回帖 登录 | 立即注册

本版积分规则

精彩图文
Archiver|手机版|TAG|Sitemap|新帖|专题|联系我们:邮箱: 4kjia.com@gmail.com   

4k家园   ©2019