[4K电影] Blush (内封中字)(2021) 4K高清版本下载/1.98GB

[复制链接]

948

主题

1009

帖子

8533

积分

超级版主

Rank: 8Rank: 8

积分
8533
 楼主| 发表于 2021-10-2 22:29:28 | 显示全部楼层 |阅读模式
本帖最后由 最爱4K哟 于 2021-10-3 08:59 编辑

QQ图片20211002212650_副本.png

◎片  名 Blush
◎年  代 2021
◎产  地 美国
◎类  别 动画片
◎语  言 英语
◎上映日期 2021-06-13(翠贝卡电影节)
◎IMDb评分  8.0/10 from 128 users
◎IMDb链接  https://www.imdb.com/title/tt14460998/
◎豆瓣评分 0/10 from 0 users
◎豆瓣链接 https://movie.douban.com/subject/35437762/
◎导  演 乔·马特奥
◎编  剧 乔·马特奥
◎主  演



◎简  介


        讲述一名园艺家宇航员坠毁在一颗荒凉的矮行星上,被困许久,当一个精灵到来后,曾经的独行侠发现了建立新生活的乐趣,并意识到宇宙已经提供了惊人的救赎。
Video
ID : 1
Format : HEVC
Format/Info : High Efficiency Video Coding
Format profile : Main 10@L5@High
HDR format : SMPTE ST 2086, HDR10 compatible
Codec ID : V_MPEGH/ISO/HEVC
Duration : 10 min 36 s
Bit rate : 23.4 Mb/s
Width : 3 840 pixels
Height : 2 076 pixels
Display aspect ratio : 1.85:1
Frame rate mode : Constant
Frame rate : 23.976 (23976/1000) FPS
Color space : YUV
Chroma subsampling : 4:2:0 (Type 2)
Bit depth : 10 bits
Bits/(Pixel*Frame) : 0.123
Stream size : 1.73 GiB (97%)
Language : English
Default : Yes
Forced : No
Color range : Limited
Color primaries : BT.2020
Transfer characteristics : PQ
Matrix coefficients : BT.2020 non-constant
Mastering display color primaries : Display P3
Mastering display luminance : min: 0.0050 cd/m2, max: 1000 cd/m2
Maximum Content Light Level : 968 cd/m2
Maximum Frame-Average Light Level : 164 cd/m2

Audio
ID : 2
Format : E-AC-3 JOC
Format/Info : Enhanced AC-3 with Joint Object Coding
Commercial name : Dolby Digital Plus with Dolby Atmos
Codec ID : A_EAC3
Duration : 10 min 36 s
Bit rate mode : Constant
Bit rate : 768 kb/s
Channel(s) : 6 channels
Channel layout : L R C LFE Ls Rs
Sampling rate : 48.0 kHz
Frame rate : 31.250 FPS (1536 SPF)
Compression mode : Lossy
Stream size : 58.2 MiB (3%)
Language : English
Service kind : Complete Main
Default : Yes
Forced : No
Complexity index : 16
Number of dynamic objects : 15
Bed channel count : 1 channel
Bed channel configuration : LFE

Text #1
ID : 3
Format : UTF-8
Codec ID : S_TEXT/UTF8
Codec ID/Info : UTF-8 Plain Text
Duration : 9 min 58 s
Bit rate : 10 b/s
Count of elements : 54
Stream size : 789 Bytes (0%)
Title : English (SDH)
Language : English
Default : No
Forced : No

Text #2
ID : 4
Format : UTF-8
Codec ID : S_TEXT/UTF8
Codec ID/Info : UTF-8 Plain Text
Duration : 1 min 35 s
Bit rate : 10 b/s
Count of elements : 2
Stream size : 128 Bytes (0%)
Title : български
Language : Bulgarian
Default : No
Forced : No

Text #3
ID : 5
Format : UTF-8
Codec ID : S_TEXT/UTF8
Codec ID/Info : UTF-8 Plain Text
Duration : 1 min 26 s
Bit rate : 2 b/s
Count of elements : 2
Stream size : 28.0 Bytes (0%)
Title : Čeština
Language : Czech
Default : No
Forced : No

Text #4
ID : 6
Format : UTF-8
Codec ID : S_TEXT/UTF8
Codec ID/Info : UTF-8 Plain Text
Duration : 1 min 35 s
Bit rate : 8 b/s
Count of elements : 2
Stream size : 104 Bytes (0%)
Title : Ελληνικά
Language : Greek
Default : No
Forced : No

Text #5
ID : 7
Format : UTF-8
Codec ID : S_TEXT/UTF8
Codec ID/Info : UTF-8 Plain Text
Duration : 1 min 35 s
Bit rate : 4 b/s
Count of elements : 2
Stream size : 54.0 Bytes (0%)
Title : eesti
Language : Estonian
Default : No
Forced : No

Text #6
ID : 8
Format : UTF-8
Codec ID : S_TEXT/UTF8
Codec ID/Info : UTF-8 Plain Text
Duration : 1 min 35 s
Bit rate : 7 b/s
Count of elements : 2
Stream size : 85.0 Bytes (0%)
Title : עברית
Language : Hebrew
Default : No
Forced : No

Text #7
ID : 9
Format : UTF-8
Codec ID : S_TEXT/UTF8
Codec ID/Info : UTF-8 Plain Text
Duration : 1 min 35 s
Bit rate : 7 b/s
Count of elements : 3
Stream size : 86.0 Bytes (0%)
Title : magyar
Language : Hungarian
Default : No
Forced : No

Text #8
ID : 10
Format : UTF-8
Codec ID : S_TEXT/UTF8
Codec ID/Info : UTF-8 Plain Text
Duration : 1 min 35 s
Bit rate : 5 b/s
Count of elements : 2
Stream size : 71.0 Bytes (0%)
Title : Bahasa Indonesia
Language : Indonesian
Default : No
Forced : No

Text #9
ID : 11
Format : UTF-8
Codec ID : S_TEXT/UTF8
Codec ID/Info : UTF-8 Plain Text
Duration : 1 min 35 s
Bit rate : 5 b/s
Count of elements : 2
Stream size : 68.0 Bytes (0%)
Title : lietuvių
Language : Lithuanian
Default : No
Forced : No

Text #10
ID : 12
Format : UTF-8
Codec ID : S_TEXT/UTF8
Codec ID/Info : UTF-8 Plain Text
Duration : 1 min 35 s
Bit rate : 4 b/s
Count of elements : 2
Stream size : 51.0 Bytes (0%)
Title : latviešu
Language : Latvian
Default : No
Forced : No

Text #11
ID : 13
Format : UTF-8
Codec ID : S_TEXT/UTF8
Codec ID/Info : UTF-8 Plain Text
Duration : 1 min 35 s
Bit rate : 5 b/s
Count of elements : 2
Stream size : 66.0 Bytes (0%)
Title : Bahasa Melayu
Language : Malay
Default : No
Forced : No

Text #12
ID : 14
Format : UTF-8
Codec ID : S_TEXT/UTF8
Codec ID/Info : UTF-8 Plain Text
Duration : 1 min 35 s
Bit rate : 2 b/s
Count of elements : 2
Stream size : 35.0 Bytes (0%)
Title : Português
Language : Portuguese
Default : No
Forced : No

Text #13
ID : 15
Format : UTF-8
Codec ID : S_TEXT/UTF8
Codec ID/Info : UTF-8 Plain Text
Duration : 1 min 26 s
Bit rate : 4 b/s
Count of elements : 2
Stream size : 49.0 Bytes (0%)
Title : Slovenčina
Language : Slovak
Default : No
Forced : No

Text #14
ID : 16
Format : UTF-8
Codec ID : S_TEXT/UTF8
Codec ID/Info : UTF-8 Plain Text
Duration : 1 min 35 s
Bit rate : 5 b/s
Count of elements : 2
Stream size : 63.0 Bytes (0%)
Title : slovenščina
Language : Slovenian
Default : No
Forced : No

Text #15
ID : 17
Format : UTF-8
Codec ID : S_TEXT/UTF8
Codec ID/Info : UTF-8 Plain Text
Duration : 1 min 35 s
Bit rate : 18 b/s
Count of elements : 2
Stream size : 220 Bytes (0%)
Title : தமிழ்
Language : Tamil
Default : No
Forced : No

Text #16
ID : 18
Format : UTF-8
Codec ID : S_TEXT/UTF8
Codec ID/Info : UTF-8 Plain Text
Duration : 1 min 35 s
Bit rate : 17 b/s
Count of elements : 2
Stream size : 206 Bytes (0%)
Title : తెలుగు
Language : Telugu
Default : No
Forced : No

Text #17
ID : 19
Format : UTF-8
Codec ID : S_TEXT/UTF8
Codec ID/Info : UTF-8 Plain Text
Duration : 1 min 35 s
Bit rate : 12 b/s
Count of elements : 3
Stream size : 146 Bytes (0%)
Title : українська
Language : Ukrainian
Default : No
Forced : No

Text #18
ID : 20
Format : UTF-8
Codec ID : S_TEXT/UTF8
Codec ID/Info : UTF-8 Plain Text
Duration : 10 min 18 s
Bit rate : 14 b/s
Count of elements : 56
Stream size : 1.09 KiB (0%)
Title : العربية (SDH)
Language : Arabic
Default : No
Forced : No

Text #19
ID : 21
Format : UTF-8
Codec ID : S_TEXT/UTF8
Codec ID/Info : UTF-8 Plain Text
Duration : 10 min 18 s
Bit rate : 11 b/s
Count of elements : 55
Stream size : 886 Bytes (0%)
Title : dansk (SDH)
Language : Danish
Default : No
Forced : No

Text #20
ID : 22
Format : UTF-8
Codec ID : S_TEXT/UTF8
Codec ID/Info : UTF-8 Plain Text
Duration : 10 min 18 s
Bit rate : 12 b/s
Count of elements : 57
Stream size : 979 Bytes (0%)
Title : Deutsch (SDH)
Language : German
Default : No
Forced : No

Text #21
ID : 23
Format : UTF-8
Codec ID : S_TEXT/UTF8
Codec ID/Info : UTF-8 Plain Text
Duration : 10 min 9 s
Bit rate : 10 b/s
Count of elements : 54
Stream size : 793 Bytes (0%)
Title : Español (España) (SDH)
Language : Spanish
Default : No
Forced : No

Text #22
ID : 24
Format : UTF-8
Codec ID : S_TEXT/UTF8
Codec ID/Info : UTF-8 Plain Text
Duration : 10 min 18 s
Bit rate : 12 b/s
Count of elements : 57
Stream size : 989 Bytes (0%)
Title : Español (Latinoamérica) (SDH)
Language : Spanish
Default : No
Forced : No

Text #23
ID : 25
Format : UTF-8
Codec ID : S_TEXT/UTF8
Codec ID/Info : UTF-8 Plain Text
Duration : 10 min 18 s
Bit rate : 13 b/s
Count of elements : 56
Stream size : 1.02 KiB (0%)
Title : Suomi (SDH)
Language : Finnish
Default : No
Forced : No

Text #24
ID : 26
Format : UTF-8
Codec ID : S_TEXT/UTF8
Codec ID/Info : UTF-8 Plain Text
Duration : 10 min 18 s
Bit rate : 13 b/s
Count of elements : 57
Stream size : 1.04 KiB (0%)
Title : Français (Canada) (SDH)
Language : French
Default : No
Forced : No

Text #25
ID : 27
Format : UTF-8
Codec ID : S_TEXT/UTF8
Codec ID/Info : UTF-8 Plain Text
Duration : 10 min 18 s
Bit rate : 13 b/s
Count of elements : 56
Stream size : 1.03 KiB (0%)
Title : Français (France) (SDH)
Language : French
Default : No
Forced : No

Text #26
ID : 28
Format : UTF-8
Codec ID : S_TEXT/UTF8
Codec ID/Info : UTF-8 Plain Text
Duration : 10 min 18 s
Bit rate : 35 b/s
Count of elements : 57
Stream size : 2.68 KiB (0%)
Title : हिन्दी (SDH)
Language : Hindi
Default : No
Forced : No

Text #27
ID : 29
Format : UTF-8
Codec ID : S_TEXT/UTF8
Codec ID/Info : UTF-8 Plain Text
Duration : 10 min 18 s
Bit rate : 12 b/s
Count of elements : 56
Stream size : 989 Bytes (0%)
Title : Italiano (SDH)
Language : Italian
Default : No
Forced : No

Text #28
ID : 30
Format : UTF-8
Codec ID : S_TEXT/UTF8
Codec ID/Info : UTF-8 Plain Text
Duration : 10 min 16 s
Bit rate : 19 b/s
Count of elements : 68
Stream size : 1.49 KiB (0%)
Title : 日本語 (SDH)
Language : Japanese
Default : No
Forced : No

Text #29
ID : 31
Format : UTF-8
Codec ID : S_TEXT/UTF8
Codec ID/Info : UTF-8 Plain Text
Duration : 10 min 18 s
Bit rate : 20 b/s
Count of elements : 57
Stream size : 1.53 KiB (0%)
Title : 한국어 (SDH)
Language : Korean
Default : No
Forced : No

Text #30
ID : 32
Format : UTF-8
Codec ID : S_TEXT/UTF8
Codec ID/Info : UTF-8 Plain Text
Duration : 10 min 18 s
Bit rate : 10 b/s
Count of elements : 56
Stream size : 841 Bytes (0%)
Title : Nederlands (België) (SDH)
Language : Dutch
Default : No
Forced : No

Text #31
ID : 33
Format : UTF-8
Codec ID : S_TEXT/UTF8
Codec ID/Info : UTF-8 Plain Text
Duration : 10 min 18 s
Bit rate : 10 b/s
Count of elements : 54
Stream size : 836 Bytes (0%)
Title : Nederlands (SDH)
Language : Dutch
Default : No
Forced : No

Text #32
ID : 34
Format : UTF-8
Codec ID : S_TEXT/UTF8
Codec ID/Info : UTF-8 Plain Text
Duration : 10 min 18 s
Bit rate : 10 b/s
Count of elements : 56
Stream size : 775 Bytes (0%)
Title : norsk (SDH)
Language : Norwegian
Default : No
Forced : No

Text #33
ID : 35
Format : UTF-8
Codec ID : S_TEXT/UTF8
Codec ID/Info : UTF-8 Plain Text
Duration : 10 min 18 s
Bit rate : 12 b/s
Count of elements : 57
Stream size : 999 Bytes (0%)
Title : polski (SDH)
Language : Polish
Default : No
Forced : No

Text #34
ID : 36
Format : UTF-8
Codec ID : S_TEXT/UTF8
Codec ID/Info : UTF-8 Plain Text
Duration : 10 min 18 s
Bit rate : 10 b/s
Count of elements : 56
Stream size : 793 Bytes (0%)
Title : Português (Brasil) (SDH)
Language : Portuguese
Default : No
Forced : No

Text #35
ID : 37
Format : UTF-8
Codec ID : S_TEXT/UTF8
Codec ID/Info : UTF-8 Plain Text
Duration : 10 min 18 s
Bit rate : 21 b/s
Count of elements : 59
Stream size : 1.63 KiB (0%)
Title : Русский (SDH)
Language : Russian
Default : No
Forced : No

Text #36
ID : 38
Format : UTF-8
Codec ID : S_TEXT/UTF8
Codec ID/Info : UTF-8 Plain Text
Duration : 10 min 18 s
Bit rate : 11 b/s
Count of elements : 56
Stream size : 887 Bytes (0%)
Title : Svenska (SDH)
Language : Swedish
Default : No
Forced : No

Text #37
ID : 39
Format : UTF-8
Codec ID : S_TEXT/UTF8
Codec ID/Info : UTF-8 Plain Text
Duration : 10 min 18 s
Bit rate : 29 b/s
Count of elements : 56
Stream size : 2.20 KiB (0%)
Title : ไทย (SDH)
Language : Thai
Default : No
Forced : No

Text #38
ID : 40
Format : UTF-8
Codec ID : S_TEXT/UTF8
Codec ID/Info : UTF-8 Plain Text
Duration : 10 min 18 s
Bit rate : 14 b/s
Count of elements : 56
Stream size : 1.09 KiB (0%)
Title : Türkçe (SDH)
Language : Turkish
Default : No
Forced : No

Text #39
ID : 41
Format : UTF-8
Codec ID : S_TEXT/UTF8
Codec ID/Info : UTF-8 Plain Text
Duration : 10 min 18 s
Bit rate : 19 b/s
Count of elements : 57
Stream size : 1.44 KiB (0%)
Title : Tiếng Việt (SDH)
Language : Vietnamese
Default : No
Forced : No

Text #40
ID : 42
Format : UTF-8
Codec ID : S_TEXT/UTF8
Codec ID/Info : UTF-8 Plain Text
Duration : 10 min 18 s
Bit rate : 11 b/s
Count of elements : 57
Stream size : 925 Bytes (0%)
Title : 廣東話 (SDH)
Language : Chinese
Default : No
Forced : No

Text #41
ID : 43
Format : UTF-8
Codec ID : S_TEXT/UTF8
Codec ID/Info : UTF-8 Plain Text
Duration : 10 min 18 s
Bit rate : 11 b/s
Count of elements : 57
Stream size : 927 Bytes (0%)
Title : 中文(繁體) (SDH)
Language : Chinese
Default : No
Forced : No

Text #42
ID : 44
Format : UTF-8
Codec ID : S_TEXT/UTF8
Codec ID/Info : UTF-8 Plain Text
Duration : 10 min 18 s
Bit rate : 11 b/s
Count of elements : 56
Stream size : 916 Bytes (0%)
Title : 中文(简体) (SDH)
Language : Chinese
Default : No
Forced : No


迅雷下载资源速度为零,资源敏感或被和谐时,推荐使用qBittorrent等无限速下载软件,有条件的推荐115更好的下载软件!

下载地址

游客,如果您要查看本帖隐藏内容请回复

游客,如果您要查看本帖隐藏内容请回复



上一篇:最危险游戏 (电影版) (2020) 4K高清版本下载/14.31GB
下一篇:乐高星球大战:恐怖故事(内封中字)(2021)4K高清版本下载/5.21GB
回复

使用道具 举报

3

主题

1333

帖子

3845

积分

4K家园VIP

Rank: 9Rank: 9Rank: 9

积分
3845
发表于 2021-10-2 22:29:34 | 显示全部楼层
楼主这资源不错,我收藏了
回复 支持 反对

使用道具 举报

0

主题

4

帖子

39

积分

新手上路

Rank: 1

积分
39
发表于 2021-10-3 01:22:17 | 显示全部楼层
支持楼主
回复

使用道具 举报

0

主题

647

帖子

2256

积分

注册会员

Rank: 2

积分
2256
发表于 2021-10-3 15:18:02 | 显示全部楼层
路过              
回复 支持 反对

使用道具 举报

2

主题

1675

帖子

4655

积分

4K家园VIP

Rank: 9Rank: 9Rank: 9

积分
4655
发表于 2021-10-10 22:48:02 来自手机 | 显示全部楼层
边撸边过
回复 支持 反对

使用道具 举报

2

主题

1519

帖子

4129

积分

4K家园VIP

Rank: 9Rank: 9Rank: 9

积分
4129
发表于 2021-10-15 20:54:44 | 显示全部楼层
看起来不错
回复 支持 反对

使用道具 举报

1

主题

1321

帖子

3979

积分

4K家园VIP

Rank: 9Rank: 9Rank: 9

积分
3979
发表于 5 天前 | 显示全部楼层
垃圾内容,路过为证。
回复 支持 反对

使用道具 举报

0

主题

1317

帖子

3963

积分

4K家园VIP

Rank: 9Rank: 9Rank: 9

积分
3963
发表于 5 天前 | 显示全部楼层
向楼主学习
回复 支持 反对

使用道具 举报

您需要登录后才可以回帖 登录 | 立即注册

本版积分规则

精彩图文
Archiver|手机版|TAG|Sitemap|新帖|专题|联系我们:邮箱: 4kjia.com@gmail.com   

4k家园   ©2019