[国家地理] [4K 国家地理] 意大利 (2021) [2160P/MKV/267MB]

[复制链接]

2566

主题

2890

帖子

2万

积分

超级版主

Rank: 8Rank: 8

积分
24032
 楼主| 发表于 2021-10-6 16:40:30 | 显示全部楼层 |阅读模式

意大利(267MB) (2021) WEBRip 2160p.mkv_20211003_224538.684.jpg 意大利(267MB) (2021) WEBRip 2160p.mkv_20211003_224556.036.jpg 意大利(267MB) (2021) WEBRip 2160p.mkv_20211003_224603.347.jpg 意大利(267MB) (2021) WEBRip 2160p.mkv_20211003_224612.427.jpg 意大利(267MB) (2021) WEBRip 2160p.mkv_20211003_224620.883.jpg 意大利(267MB) (2021) WEBRip 2160p.mkv_20211003_224630.715.jpg

影片信息
片名:意大利
上映时间: 2021
国家:意大利
时长: 00 : 02 : 44
类型: 物种
导演: Patrick Loosman

影片简介:

        意大利北部旅行,白云岩、加尔达湖和科莫湖、威尼斯和五渔村。这是一段奇妙旅程的快速概览!

General
Complete name                  : E:\意大利(267MB) (2021) WEBRip 2160p.mkv
Format                         : Matroska
Format version                 : Version 4
File size                      : 268 MiB
Duration                       : 2 min 44 s
Overall bit rate               : 13.7 Mb/s
Encoded date                   : UTC 2021-09-16 17:57:20
Writing application            : mkvmerge v61.0.0 ('So') 64-bit
Writing library                : libebml v1.4.2 + libmatroska v1.6.4 / Lavf58.29.100

Video
ID                             : 1
Format                         : VP9
Codec ID                       : V_VP9
Duration                       : 2 min 44 s
Bit rate                       : 13.6 Mb/s
Width                          : 3 840 pixels
Height                         : 2 160 pixels
Display aspect ratio           : 16:9
Frame rate mode                : Constant
Frame rate                     : 25.000 FPS
Color space                    : YUV
Bits/(Pixel*Frame)             : 0.065
Stream size                    : 265 MiB (99%)
Default                        : Yes
Forced                         : No
Color range                    : Limited
Color primaries                : BT.709
Transfer characteristics       : BT.709
Matrix coefficients            : BT.709

Audio
ID                             : 2
Format                         : Opus
Codec ID                       : A_OPUS
Duration                       : 2 min 44 s
Bit rate                       : 127 kb/s
Channel(s)                     : 2 channels
Channel layout                 : L R
Sampling rate                  : 48.0 kHz
Frame rate                     : 50.001 FPS (960 SPF)
Bit depth                      : 32 bits
Compression mode               : Lossy
Stream size                    : 2.48 MiB (1%)
Default                        : Yes
Forced                         : No
下载地址

****此区域为收费内容****    需支付 15 金币后可查看立即购买




上一篇:[4K 国家地理] 委内瑞拉丛林最高的瀑布 (2021) [2160P/MKV/415MB]
下一篇:[4K国家地理] 来自葡萄牙的回忆 (2021) [2160P/MKV/319MB]
回复

使用道具 举报

4

主题

1612

帖子

4436

积分

4K家园VIP

Rank: 9Rank: 9Rank: 9

积分
4436
发表于 2021-10-6 16:40:34 | 显示全部楼层
珍爱生命,果断回帖。
回复 支持 反对

使用道具 举报

0

主题

1

帖子

6

积分

新手上路

Rank: 1

积分
6
发表于 2021-10-6 19:53:11 | 显示全部楼层
今天有……??——深圳国际会展
回复 支持 反对

使用道具 举报

2

主题

1112

帖子

3354

积分

4K家园VIP

Rank: 9Rank: 9Rank: 9

积分
3354
发表于 2021-10-6 21:22:17 | 显示全部楼层
不错 支持下
回复 支持 反对

使用道具 举报

0

主题

1297

帖子

3903

积分

4K家园VIP

Rank: 9Rank: 9Rank: 9

积分
3903
发表于 2021-10-7 02:29:47 | 显示全部楼层
没看懂
回复 支持 反对

使用道具 举报

0

主题

1402

帖子

4018

积分

4K家园VIP

Rank: 9Rank: 9Rank: 9

积分
4018
发表于 2021-10-7 12:43:06 | 显示全部楼层
楼猪V5啊
回复 支持 反对

使用道具 举报

0

主题

1272

帖子

3832

积分

4K家园VIP

Rank: 9Rank: 9Rank: 9

积分
3832
发表于 2021-10-7 16:25:57 来自手机 | 显示全部楼层
前排顶,很好!
回复 支持 反对

使用道具 举报

0

主题

642

帖子

2238

积分

注册会员

Rank: 2

积分
2238
发表于 5 天前 | 显示全部楼层

感谢楼主分享影片!
回复 支持 反对

使用道具 举报

您需要登录后才可以回帖 登录 | 立即注册

本版积分规则

精彩图文
Archiver|手机版|TAG|Sitemap|新帖|专题|联系我们:邮箱: 4kjia.com@gmail.com   

4k家园   ©2019