[国家地理] [4K 国家地理] 魔力西班牙 (2021) [2160P/MKV/298MB]

[复制链接]

2607

主题

2941

帖子

2万

积分

超级版主

Rank: 8Rank: 8

积分
24482
 楼主| 发表于 2021-10-23 19:04:09 | 显示全部楼层 |阅读模式

西班牙(298MB) (2021) WEBRip 2160p.mkv_20211003_225200.875.jpg 西班牙(298MB) (2021) WEBRip 2160p.mkv_20211003_225206.339.jpg 西班牙(298MB) (2021) WEBRip 2160p.mkv_20211003_225239.571.jpg 西班牙(298MB) (2021) WEBRip 2160p.mkv_20211003_225247.691.jpg 西班牙(298MB) (2021) WEBRip 2160p.mkv_20211003_225253.427.jpg 西班牙(298MB) (2021) WEBRip 2160p.mkv_20211003_225305.939.jpg

影片信息
片名:西班牙
上映时间: 2021
国家:西班牙
时长: 00 : 02 : 39
类型: 物种
导演:无人机革命

影片简介:

        西班牙是一个美丽的国家,每个城市都有特殊的魔力。在这段史诗般的视频中,您可以在穿越巴塞罗那、马拉加、塞维利亚和格拉纳达等城市的美妙旅程中享受这种魔力。

General
Complete name                  : E:\魔力西班牙(298MB) (2021) WEBRip 2160p.mkv
Format                         : Matroska
Format version                 : Version 4
File size                      : 299 MiB
Duration                       : 2 min 39 s
Overall bit rate               : 15.7 Mb/s
Encoded date                   : UTC 2021-09-07 10:32:33
Writing application            : mkvmerge v61.0.0 ('So') 64-bit
Writing library                : libebml v1.4.2 + libmatroska v1.6.4 / Lavf58.29.100

Video
ID                             : 1
Format                         : VP9
Codec ID                       : V_VP9
Duration                       : 2 min 39 s
Bit rate                       : 15.6 Mb/s
Width                          : 3 840 pixels
Height                         : 2 160 pixels
Display aspect ratio           : 16:9
Frame rate mode                : Constant
Frame rate                     : 25.000 FPS
Color space                    : YUV
Bits/(Pixel*Frame)             : 0.075
Stream size                    : 296 MiB (99%)
Default                        : Yes
Forced                         : No
Color range                    : Limited
Color primaries                : BT.709
Transfer characteristics       : BT.709
Matrix coefficients            : BT.709

Audio
ID                             : 2
Format                         : Opus
Codec ID                       : A_OPUS
Duration                       : 2 min 39 s
Bit rate                       : 127 kb/s
Channel(s)                     : 2 channels
Channel layout                 : L R
Sampling rate                  : 48.0 kHz
Frame rate                     : 50.006 FPS (960 SPF)
Bit depth                      : 32 bits
Compression mode               : Lossy
Stream size                    : 2.42 MiB (1%)
Default                        : Yes
Forced                         : No
下载地址   

****此区域为收费内容****    需支付 15 金币后可查看立即购买






上一篇:[4K 国家地理] 意大利 (2021) [2160P/MKV/267MB]
下一篇:[4K 国家地理] 苏格兰斯凯岛 (2021) [2160P/MKV/285MB]
回复

使用道具 举报

1

主题

1280

帖子

3854

积分

4K家园VIP

Rank: 9Rank: 9Rank: 9

积分
3854
发表于 2021-10-23 19:04:15 | 显示全部楼层
珍爱生命,果断回帖。
回复 支持 反对

使用道具 举报

0

主题

6576

帖子

1万

积分

4K家园VIP

Rank: 9Rank: 9Rank: 9

积分
15360
发表于 2021-10-23 19:06:47 | 显示全部楼层
魔力西班牙4k
回复 支持 反对

使用道具 举报

2

主题

1123

帖子

3391

积分

4K家园VIP

Rank: 9Rank: 9Rank: 9

积分
3391
发表于 2021-10-25 02:51:31 | 显示全部楼层
感谢分享
回复 支持 反对

使用道具 举报

4

主题

1197

帖子

3619

积分

4K家园VIP

Rank: 9Rank: 9Rank: 9

积分
3619
发表于 2021-10-26 11:40:48 | 显示全部楼层
体验下4K版的
回复 支持 反对

使用道具 举报

43

主题

1458

帖子

4180

积分

4K家园VIP

Rank: 9Rank: 9Rank: 9

积分
4180
发表于 2021-10-26 22:02:34 | 显示全部楼层
边撸边过
回复 支持 反对

使用道具 举报

55

主题

1483

帖子

4281

积分

4K家园VIP

Rank: 9Rank: 9Rank: 9

积分
4281
发表于 2021-10-28 13:53:02 来自手机 | 显示全部楼层
我是个凑数的。。。
回复 支持 反对

使用道具 举报

0

主题

4

帖子

30

积分

新手上路

Rank: 1

积分
30
发表于 2021-10-28 23:32:50 来自手机 | 显示全部楼层
纪录片不错
回复 支持 反对

使用道具 举报

您需要登录后才可以回帖 登录 | 立即注册

本版积分规则

精彩图文
Archiver|手机版|TAG|Sitemap|新帖|专题|联系我们:邮箱: 4kjia.com@gmail.com   

4k家园   ©2019