[国家地理] [4K 国家地理] 让我们去图卢姆 (2021) [2160P/MKV/314MB]

[复制链接]

2664

主题

2998

帖子

2万

积分

超级版主

Rank: 8Rank: 8

积分
25020
 楼主| 发表于 2022-1-6 20:39:22 | 显示全部楼层 |阅读模式

让我们去图卢姆(314MB) (2021) WEBRip 2160p.mkv_20211003_230744.602.jpg 让我们去图卢姆(314MB) (2021) WEBRip 2160p.mkv_20211003_230758.370.jpg 让我们去图卢姆(314MB) (2021) WEBRip 2160p.mkv_20211003_230808.881.jpg 让我们去图卢姆(314MB) (2021) WEBRip 2160p.mkv_20211003_230817.826.jpg 让我们去图卢姆(314MB) (2021) WEBRip 2160p.mkv_20211003_230834.098.jpg 让我们去图卢姆(314MB) (2021) WEBRip 2160p.mkv_20211003_230848.778.jpg

影片信息
片名:一起去图卢姆
上映年份: 2021
持续时间: 00 : 03 : 07
国家:墨西哥
类型: 物种

电影介绍:

       在过去的几年里,墨西哥的图卢姆已经成为最受欢迎的旅游目的地之一。从原始海滩到玛雅遗址和无尽的天然井和洞穴。这个地方真正适合所有人,无论您是寻求放松还是冒险。
General
Complete name                  : E:\让我们去图卢姆(314MB) (2021) WEBRip 2160p.mkv
Format                         : Matroska
Format version                 : Version 4
File size                      : 315 MiB
Duration                       : 3 min 7 s
Overall bit rate               : 14.1 Mb/s
Encoded date                   : UTC 2021-09-19 14:55:38
Writing application            : mkvmerge v61.0.0 ('So') 64-bit
Writing library                : libebml v1.4.2 + libmatroska v1.6.4

Video
ID                             : 1
Format                         : VP9
Codec ID                       : V_VP9
Duration                       : 3 min 7 s
Bit rate                       : 13.9 Mb/s
Width                          : 3 840 pixels
Height                         : 2 160 pixels
Display aspect ratio           : 16:9
Frame rate mode                : Constant
Frame rate                     : 23.976 FPS
Bits/(Pixel*Frame)             : 0.070
Stream size                    : 312 MiB (99%)
Language                       : English
Default                        : Yes
Forced                         : No

Audio
ID                             : 2
Format                         : AAC LC
Format/Info                    : Advanced Audio Codec Low Complexity
Codec ID                       : A_AAC-2
Duration                       : 3 min 7 s
Bit rate                       : 128 kb/s
Channel(s)                     : 2 channels
Channel layout                 : L R
Sampling rate                  : 44.1 kHz
Frame rate                     : 43.066 FPS (1024 SPF)
Compression mode               : Lossy
Stream size                    : 2.86 MiB (1%)
Language                       : English
Default                        : Yes
Forced                         : No
下载地址


****此区域为收费内容****    需支付 15 金币后可查看立即购买






上一篇:[4K 国家地理] 苏格兰斯凯岛 (2021) [2160P/MKV/285MB]
下一篇:[4K 国家地理] 让我们一起去阿联酋 (2021) [2160P/MKV/254MB]
回复

使用道具 举报

1

主题

1345

帖子

3871

积分

4K家园VIP

Rank: 9Rank: 9Rank: 9

积分
3871
发表于 2022-1-6 20:39:47 | 显示全部楼层
小白一个 顶一下
回复 支持 反对

使用道具 举报

0

主题

7280

帖子

1万

积分

4K家园VIP

Rank: 9Rank: 9Rank: 9

积分
16651
发表于 2022-1-6 22:03:22 | 显示全部楼层
墨西哥的圖盧姆4k
回复 支持 反对

使用道具 举报

0

主题

4

帖子

18

积分

新手上路

Rank: 1

积分
18
发表于 2022-1-7 08:08:58 | 显示全部楼层
66666666好
回复 支持 反对

使用道具 举报

2

主题

1330

帖子

3856

积分

4K家园VIP

Rank: 9Rank: 9Rank: 9

积分
3856
发表于 5 天前 | 显示全部楼层
都不知道说的啥
回复 支持 反对

使用道具 举报

0

主题

1321

帖子

3785

积分

4K家园VIP

Rank: 9Rank: 9Rank: 9

积分
3785
发表于 昨天 21:27 | 显示全部楼层
回复 支持 反对

使用道具 举报

您需要登录后才可以回帖 登录 | 立即注册

本版积分规则

精彩图文
Archiver|手机版|TAG|Sitemap|新帖|专题|联系我们:邮箱: 4kjia.com@gmail.com   

4k家园   ©2019