[国家地理] [4K 国家地理] 让我们一起去阿联酋 (2021) [2160P/MKV/254MB]

[复制链接]

2607

主题

2941

帖子

2万

积分

超级版主

Rank: 8Rank: 8

积分
24482
 楼主| 发表于 2021-10-30 16:13:16 | 显示全部楼层 |阅读模式
让我们去阿联酋(254MB) (2021) WEBRip 2160p.mkv_20211003_230509.203.jpg 让我们去阿联酋(254MB) (2021) WEBRip 2160p.mkv_20211003_230514.322.jpg 让我们去阿联酋(254MB) (2021) WEBRip 2160p.mkv_20211003_230522.474.jpg 让我们去阿联酋(254MB) (2021) WEBRip 2160p.mkv_20211003_230528.338.jpg 让我们去阿联酋(254MB) (2021) WEBRip 2160p.mkv_20211003_230536.042.jpg 让我们去阿联酋(254MB) (2021) WEBRip 2160p.mkv_20211003_230550.882.jpg

影片信息
片名:一起去酋长国
年度酋长国: 2021
国家:阿联酋
持续时间: 00 : 02 : 37
类型: 物种

关于电影:

       你们都看过迪拜和阿布扎比的未来主义天际线,但你见过吗?阿联酋的美丽大自然?

General
Complete name                  : E:\让我们一起去阿联酋(254MB) (2021) WEBRip 2160p.mkv
Format                         : Matroska
Format version                 : Version 4
File size                      : 254 MiB
Duration                       : 2 min 37 s
Overall bit rate               : 13.5 Mb/s
Encoded date                   : UTC 2021-09-19 14:27:41
Writing application            : mkvmerge v61.0.0 ('So') 64-bit
Writing library                : libebml v1.4.2 + libmatroska v1.6.4 / Lavf58.29.100

Video
ID                             : 1
Format                         : VP9
Codec ID                       : V_VP9
Duration                       : 2 min 37 s
Bit rate                       : 13.4 Mb/s
Width                          : 3 840 pixels
Height                         : 2 026 pixels
Display aspect ratio           : 1.895
Frame rate mode                : Constant
Frame rate                     : 23.976 (24000/1001) FPS
Color space                    : YUV
Bits/(Pixel*Frame)             : 0.072
Stream size                    : 252 MiB (99%)
Default                        : Yes
Forced                         : No
Color range                    : Limited
Color primaries                : BT.709
Transfer characteristics       : BT.709
Matrix coefficients            : BT.709

Audio
ID                             : 2
Format                         : AAC LC
Format/Info                    : Advanced Audio Codec Low Complexity
Codec ID                       : A_AAC-2
Duration                       : 2 min 37 s
Bit rate                       : 128 kb/s
Channel(s)                     : 2 channels
Channel layout                 : L R
Sampling rate                  : 44.1 kHz
Frame rate                     : 43.066 FPS (1024 SPF)
Compression mode               : Lossy
Stream size                    : 2.41 MiB (1%)
Default                        : Yes
Forced                         : No

下载地址  

****此区域为收费内容****    需支付 15 金币后可查看立即购买






上一篇:[4K 国家地理] 苏格兰斯凯岛 (2021) [2160P/MKV/285MB]
下一篇:[4K国家地理] 来自葡萄牙的回忆 (2021) [2160P/MKV/319MB]
回复

使用道具 举报

4

主题

1260

帖子

3800

积分

4K家园VIP

Rank: 9Rank: 9Rank: 9

积分
3800
发表于 2021-10-30 16:13:20 | 显示全部楼层
感谢分享
回复 支持 反对

使用道具 举报

0

主题

1330

帖子

4004

积分

4K家园VIP

Rank: 9Rank: 9Rank: 9

积分
4004
发表于 2021-10-30 16:13:20 | 显示全部楼层
出4K版啦,下个看看
回复 支持 反对

使用道具 举报

0

主题

6576

帖子

1万

积分

4K家园VIP

Rank: 9Rank: 9Rank: 9

积分
15360
发表于 2021-10-30 16:50:23 | 显示全部楼层
太好啦&萬分感謝版主的無私發佈分享%
回复 支持 反对

使用道具 举报

1

主题

1558

帖子

4276

积分

4K家园VIP

Rank: 9Rank: 9Rank: 9

积分
4276
发表于 2021-10-31 23:26:35 来自手机 | 显示全部楼层
出4K版啦,下个看看
回复 支持 反对

使用道具 举报

0

主题

1307

帖子

4105

积分

中级会员

Rank: 4

积分
4105
发表于 2021-11-2 14:11:11 | 显示全部楼层
谢楼主分享资源
回复 支持 反对

使用道具 举报

0

主题

1307

帖子

4105

积分

中级会员

Rank: 4

积分
4105
发表于 2021-11-2 14:11:45 | 显示全部楼层
谢楼主分享资源
回复 支持 反对

使用道具 举报

2

主题

1145

帖子

3455

积分

4K家园VIP

Rank: 9Rank: 9Rank: 9

积分
3455
发表于 2021-11-2 20:32:30 | 显示全部楼层
4K家园资源最近貌似越来越多了
回复 支持 反对

使用道具 举报

41

主题

1492

帖子

4274

积分

4K家园VIP

Rank: 9Rank: 9Rank: 9

积分
4274
发表于 2021-11-7 10:01:14 | 显示全部楼层
4K应该不错,我也下个看看
回复 支持 反对

使用道具 举报

您需要登录后才可以回帖 登录 | 立即注册

本版积分规则

精彩图文
Archiver|手机版|TAG|Sitemap|新帖|专题|联系我们:邮箱: 4kjia.com@gmail.com   

4k家园   ©2019