[国家地理] [4K国家地理] 来自葡萄牙的回忆 (2021) [2160P/MKV/319MB]

[复制链接]

2566

主题

2890

帖子

2万

积分

超级版主

Rank: 8Rank: 8

积分
24032
 楼主| 发表于 2021-10-11 15:20:20 | 显示全部楼层 |阅读模式

ВОСПОМИНАНИЯ ИЗ ПОРТУГАЛИИ.mkv_20211004_100354.474.jpg ВОСПОМИНАНИЯ ИЗ ПОРТУГАЛИИ.mkv_20211004_100410.410.jpg ВОСПОМИНАНИЯ ИЗ ПОРТУГАЛИИ.mkv_20211004_100426.698.jpg ВОСПОМИНАНИЯ ИЗ ПОРТУГАЛИИ.mkv_20211004_100438.538.jpg ВОСПОМИНАНИЯ ИЗ ПОРТУГАЛИИ.mkv_20211004_100449.762.jpg ВОСПОМИНАНИЯ ИЗ ПОРТУГАЛИИ.mkv_20211004_100505.650.jpg

关于影片
片名:记忆来自葡萄牙
发行时间: 2021
国家:葡萄牙
持续时间: 00 : 03 : 17

类型: 景区
导演:丹尼斯·巴尔巴斯

关于影片:


        短电影的视频显示了一些从夏季前往葡萄牙的回忆。没有什么花哨的,没有过渡,只是来自这个星球上我最喜欢的国家之一的干净简单的视频。
General
Complete name                  : D:\来自葡萄牙的回忆(319MB) (2021) WEBRip 2160p.mkv
Format                         : Matroska
Format version                 : Version 4
File size                      : 319 MiB
Duration                       : 3 min 17 s
Overall bit rate               : 13.6 Mb/s
Encoded date                   : UTC 2021-10-03 17:09:03
Writing application            : mkvmerge v61.0.0 ('So') 64-bit
Writing library                : libebml v1.4.2 + libmatroska v1.6.4 / Lavf58.29.100

Video
ID                             : 1
Format                         : VP9
Codec ID                       : V_VP9
Duration                       : 3 min 17 s
Bit rate                       : 13.4 Mb/s
Width                          : 3 840 pixels
Height                         : 1 920 pixels
Display aspect ratio           : 2.000
Frame rate mode                : Constant
Frame rate                     : 23.976 (24000/1001) FPS
Color space                    : YUV
Bits/(Pixel*Frame)             : 0.076
Stream size                    : 316 MiB (99%)
Default                        : Yes
Forced                         : No
Color range                    : Limited
Color primaries                : BT.709
Transfer characteristics       : BT.709
Matrix coefficients            : BT.709

Audio
ID                             : 2
Format                         : AAC LC
Format/Info                    : Advanced Audio Codec Low Complexity
Codec ID                       : A_AAC-2
Duration                       : 3 min 17 s
Bit rate                       : 128 kb/s
Channel(s)                     : 2 channels
Channel layout                 : L R
Sampling rate                  : 44.1 kHz
Frame rate                     : 43.066 FPS (1024 SPF)
Compression mode               : Lossy
Stream size                    : 3.02 MiB (1%)
Default                        : Yes
Forced                         : No




下载地址

****此区域为收费内容****    需支付 15 金币后可查看立即购买








上一篇:[4K 国家地理] 意大利 (2021) [2160P/MKV/267MB]
下一篇:[4K国家地理] 皮埃蒙特首府-都灵 (2021) [2160P/MKV/829MB]
回复

使用道具 举报

3

主题

1567

帖子

4297

积分

4K家园VIP

Rank: 9Rank: 9Rank: 9

积分
4297
发表于 2021-10-11 15:20:28 | 显示全部楼层
垃圾内容,路过为证。
回复 支持 反对

使用道具 举报

0

主题

5940

帖子

1万

积分

4K家园VIP

Rank: 9Rank: 9Rank: 9

积分
14188
发表于 2021-10-13 09:01:55 | 显示全部楼层
太好啦&萬分感謝版主的無私發佈分享%
回复 支持 反对

使用道具 举报

0

主题

1175

帖子

3721

积分

中级会员

Rank: 4

积分
3721
发表于 2021-10-13 10:43:47 | 显示全部楼层
谢谢楼主的 分享
回复 支持 反对

使用道具 举报

0

主题

642

帖子

2238

积分

注册会员

Rank: 2

积分
2238
发表于 5 天前 | 显示全部楼层
感谢楼主分享
回复 支持 反对

使用道具 举报

2

主题

1341

帖子

3881

积分

4K家园VIP

Rank: 9Rank: 9Rank: 9

积分
3881
发表于 昨天 12:29 | 显示全部楼层
为保住菊花,这个一定得回复!
回复 支持 反对

使用道具 举报

3

主题

1245

帖子

3753

积分

4K家园VIP

Rank: 9Rank: 9Rank: 9

积分
3753
发表于 半小时前 | 显示全部楼层
占位编辑
回复 支持 反对

使用道具 举报

您需要登录后才可以回帖 登录 | 立即注册

本版积分规则

精彩图文
Archiver|手机版|TAG|Sitemap|新帖|专题|联系我们:邮箱: 4kjia.com@gmail.com   

4k家园   ©2019