[4KMV] 2017 HyunA-嘴唇和臀部(收藏版) [2160P /MP4/1.28GB]

[复制链接]

2566

主题

2890

帖子

2万

积分

超级版主

Rank: 8Rank: 8

积分
24032
 楼主| 发表于 2021-10-5 13:11:26 | 显示全部楼层 |阅读模式
HyunA - Lip & Hip [UHD 2160p].mp4_20211005_125315.824.jpg HyunA - Lip & Hip [UHD 2160p].mp4_20211005_125357.913.jpg HyunA - Lip & Hip [UHD 2160p].mp4_20211005_125452.873.jpg HyunA - Lip & Hip [UHD 2160p].mp4_20211005_125559.536.jpg HyunA - Lip & Hip [UHD 2160p].mp4_20211005_125646.368.jpg HyunA - Lip & Hip [UHD 2160p].mp4_20211005_125710.639.jpg

General
Complete name                  : Y:\4K@MV\Hyuna 4K\HyunA - Lip & Hip [UHD 2160p].mp4
Format                         : MPEG-4
Format profile                 : Base Media
Codec ID                       : isom (isom/iso2/avc1/mp41)
File size                      : 1.29 GiB
Duration                       : 3 min 40 s
Overall bit rate mode          : Variable
Overall bit rate               : 50.1 Mb/s
Encoded date                   : UTC 2021-09-06 14:50:27
Tagged date                    : UTC 2021-09-06 14:50:27
Writing application            : Lavf58.12.100

Video
ID                             : 1
Format                         : AVC
Format/Info                    : Advanced Video Codec
Format profile                 : Baseline@L5.1
Format settings                : 1 Ref Frames
Format settings, CABAC         : No
Format settings, Reference fra : 1 frame
Codec ID                       : avc1
Codec ID/Info                  : Advanced Video Coding
Duration                       : 3 min 40 s
Bit rate                       : 49.9 Mb/s
Width                          : 3 840 pixels
Height                         : 2 160 pixels
Display aspect ratio           : 16:9
Frame rate mode                : Variable
Frame rate                     : 23.976 (24000/1001) FPS
Minimum frame rate             : 23.786 FPS
Maximum frame rate             : 24.415 FPS
Color space                    : YUV
Chroma subsampling             : 4:2:0
Bit depth                      : 8 bits
Scan type                      : Progressive
Bits/(Pixel*Frame)             : 0.251
Stream size                    : 1.28 GiB (100%)
Language                       : English
Encoded date                   : UTC 2021-09-06 14:50:27
Tagged date                    : UTC 2021-09-06 14:50:27
Color range                    : Limited
Codec configuration box        : avcC

Audio
ID                             : 2
Format                         : AAC LC
Format/Info                    : Advanced Audio Codec Low Complexity
Codec ID                       : mp4a-40-2
Duration                       : 3 min 40 s
Bit rate mode                  : Variable
Bit rate                       : 192 kb/s
Maximum bit rate               : 256 kb/s
Channel(s)                     : 2 channels
Channel layout                 : L R
Sampling rate                  : 48.0 kHz
Frame rate                     : 46.875 FPS (1024 SPF)
Compression mode               : Lossy
Stream size                    : 4.98 MiB (0%)
Language                       : English
Default                        : Yes
Alternate group                : 1
Encoded date                   : UTC 2021-09-06 14:50:27
Tagged date                    : UTC 2021-09-06 14:50:27
百度网盘失效不补:链接: https://pan.baidu.com/s/1fC9EtSBzDiMDlFfNn-IHUw 提取码:
****此区域为收费内容****    需支付 25 金币后可查看立即购买






上一篇:[4KMV] 2021 SUNMI - You can't sit with us (Bugs) [2160P /MP4/2.04GB]
下一篇:[4KMV] 2021 Hi-L - Too Too (22) [Bugs! 2160p] [2160P /MP4/1.81GB]
回复

使用道具 举报

47

主题

1426

帖子

4070

积分

4K家园VIP

Rank: 9Rank: 9Rank: 9

积分
4070
发表于 2021-10-5 13:11:31 | 显示全部楼层
不错 支持下
回复 支持 反对

使用道具 举报

0

主题

1317

帖子

3965

积分

4K家园VIP

Rank: 9Rank: 9Rank: 9

积分
3965
发表于 2021-10-5 23:45:28 | 显示全部楼层
出4K版啦,下个看看
回复 支持 反对

使用道具 举报

0

主题

642

帖子

2238

积分

注册会员

Rank: 2

积分
2238
发表于 2021-10-6 16:22:04 | 显示全部楼层
感谢楼主分享
回复 支持 反对

使用道具 举报

2566

主题

2890

帖子

2万

积分

超级版主

Rank: 8Rank: 8

积分
24032
 楼主| 发表于 2021-10-6 21:41:06 | 显示全部楼层
c37c7baa7f8640218147f6cd1ed9baef.png
回复 支持 反对

使用道具 举报

5

主题

1429

帖子

4119

积分

4K家园VIP

Rank: 9Rank: 9Rank: 9

积分
4119
发表于 2021-10-7 00:29:51 来自手机 | 显示全部楼层
路过
回复 支持 反对

使用道具 举报

1

主题

1257

帖子

3785

积分

4K家园VIP

Rank: 9Rank: 9Rank: 9

积分
3785
发表于 2021-10-7 02:40:49 | 显示全部楼层
专业抢沙发的!哈哈
回复 支持 反对

使用道具 举报

1

主题

1423

帖子

4069

积分

4K家园VIP

Rank: 9Rank: 9Rank: 9

积分
4069
发表于 2021-10-7 03:29:50 | 显示全部楼层
边撸边过
回复 支持 反对

使用道具 举报

0

主题

1

帖子

10

积分

新手上路

Rank: 1

积分
10
发表于 2021-10-7 11:37:10 | 显示全部楼层
感谢楼主分享
回复 支持 反对

使用道具 举报

0

主题

642

帖子

2238

积分

注册会员

Rank: 2

积分
2238
发表于 2021-10-11 14:00:46 | 显示全部楼层
谢谢楼主分享
回复 支持 反对

使用道具 举报

您需要登录后才可以回帖 登录 | 立即注册

本版积分规则

精彩图文
Archiver|手机版|TAG|Sitemap|新帖|专题|联系我们:邮箱: 4kjia.com@gmail.com   

4k家园   ©2019