[4K电影] 阿米蒂维尔之月 / Amityville.Moon (2021) 4K高清版本下载/7.94GB

[复制链接]

66

主题

1483

帖子

4311

积分

4K家园VIP

Rank: 9Rank: 9Rank: 9

积分
4311
 楼主| 发表于 2021-10-5 20:28:48 | 显示全部楼层 |阅读模式
QQ图片20211005202034_副本.png

◎译  名 阿米蒂维尔之月
◎片  名 The Amityville Moon
◎年  代 2021
◎产  地 美国
◎类  别 惊悚 / 恐怖
◎语  言 英语
◎上映日期 2021-10-05(美国)
◎IMDb评分  0/10 from 0 users
◎IMDb链接  https://www.imdb.com/title/tt14076114/

◎豆瓣评分 0/10 from 0 users
◎豆瓣链接 https://movie.douban.com/subject/35457302/
◎主  演 科迪·蕾尼·卡梅伦
        屈丝苔·奈特
        奥吉·杜克
                  卡塔琳娜利水域
                   文森特·M·沃德
                   大卫B.草甸
                   谢里·戴维斯
                   亚历克斯·莱因哈特
                   布雷特·瓦格纳,
                   丽贝卡·林恩莫利
                   三分球麦柯利
                   迈克尔Gaglio
                   萨拉Polednak
                   亚历克西斯Iacono
                   迈克尔·塞万提斯
                   凯尔西·祖科夫斯基
                   克里斯蒂娜·沃德
                   塞拉·贾娜



◎简  介

  一名侦探受雇在教堂经营的寄宿家庭中寻找两名逃跑的女孩。在找到并归还其中一个女孩后,侦探发现了家里可怕的秘密。
Video
ID : 1
Format : HEVC
Format/Info : High Efficiency Video Coding
Format profile : Main 10@L5@High
Codec ID : V_MPEGH/ISO/HEVC
Duration : 1 h 32 min
Bit rate : 11.9 Mb/s
Width : 3 832 pixels
Height : 2 152 pixels
Display aspect ratio : 16:9
Frame rate mode : Constant
Frame rate : 23.976 FPS
Color space : YUV
Chroma subsampling : 4:2:0
Bit depth : 10 bits
Bits/(Pixel*Frame) : 0.060
Stream size : 7.69 GiB (97%)
Default : Yes
Forced : No
Color range : Limited
Color primaries : BT.709
Transfer characteristics : BT.709
Matrix coefficients : BT.709

Audio
ID : 2
Format : AC-3
Format/Info : Audio Coding 3
Commercial name : Dolby Digital
Codec ID : A_AC3
Duration : 1 h 32 min
Bit rate mode : Constant
Bit rate : 384 kb/s
Channel(s) : 6 channels
Channel layout : L R C LFE Ls Rs
Sampling rate : 48.0 kHz
Frame rate : 31.250 FPS (1536 SPF)
Compression mode : Lossy
Stream size : 253 MiB (3%)
Title : English
Language : English
Service kind : Complete Main
Default : No
Forced : No

Text #1
ID : 3
Format : UTF-8
Codec ID : S_TEXT/UTF8
Codec ID/Info : UTF-8 Plain Text
Duration : 1 h 24 min
Bit rate : 45 b/s
Count of elements : 949
Stream size : 28.2 KiB (0%)
Language : English
Default : Yes
Forced : No

Text #2
ID : 4
Format : UTF-8
Codec ID : S_TEXT/UTF8
Codec ID/Info : UTF-8 Plain Text
Duration : 1 h 9 min
Bit rate : 41 b/s
Count of elements : 724
Stream size : 21.1 KiB (0%)
Title : French
Language : French
Default : No
Forced : No
下载地址


游客,如果您要查看本帖隐藏内容请回复







上一篇:黑人女孩回忆录 /Memoirs.of.a.Black.Girl (2021)4K高清版本下载/6.60GB
下一篇:老去 / Old (2021) 4K高清版本下载/11.56GB
回复

使用道具 举报

37

主题

1444

帖子

4132

积分

4K家园VIP

Rank: 9Rank: 9Rank: 9

积分
4132
发表于 2021-10-5 20:28:52 来自手机 | 显示全部楼层
我也顶起出售广告位
回复 支持 反对

使用道具 举报

1

主题

1333

帖子

3841

积分

4K家园VIP

Rank: 9Rank: 9Rank: 9

积分
3841
发表于 2021-10-6 03:51:11 | 显示全部楼层
正需要
回复 支持 反对

使用道具 举报

58

主题

1509

帖子

4337

积分

4K家园VIP

Rank: 9Rank: 9Rank: 9

积分
4337
发表于 2021-10-6 04:42:00 | 显示全部楼层
嘘,低调。
回复 支持 反对

使用道具 举报

8

主题

1128

帖子

3350

积分

4K家园VIP

Rank: 9Rank: 9Rank: 9

积分
3350
发表于 2021-10-6 05:25:19 | 显示全部楼层
鼎力支持!!
回复 支持 反对

使用道具 举报

0

主题

1363

帖子

3909

积分

4K家园VIP

Rank: 9Rank: 9Rank: 9

积分
3909
发表于 2021-10-6 09:01:58 | 显示全部楼层
站位支持
回复 支持 反对

使用道具 举报

0

主题

647

帖子

2256

积分

注册会员

Rank: 2

积分
2256
发表于 2021-10-6 20:00:12 | 显示全部楼层
感谢分享!!!
回复

使用道具 举报

0

主题

56

帖子

113

积分

新手上路

Rank: 1

积分
113
发表于 2021-10-12 12:25:58 | 显示全部楼层

Where is Administration 4kjia.com?

Can I contact admin??
I'ts important.
Regards.
回复 支持 反对

使用道具 举报

您需要登录后才可以回帖 登录 | 立即注册

本版积分规则

精彩图文
Archiver|手机版|TAG|Sitemap|新帖|专题|联系我们:邮箱: 4kjia.com@gmail.com   

4k家园   ©2019