[4K电影] 老去 / Old (2021) 4K高清版本下载/11.56GB

[复制链接]

942

主题

1003

帖子

8494

积分

超级版主

Rank: 8Rank: 8

积分
8494
 楼主| 发表于 2021-10-5 20:35:43 | 显示全部楼层 |阅读模式
本帖最后由 最爱4K哟 于 2021-10-5 21:47 编辑

老去.png

◎译  名 老去/归老(豆友译名)/诡老(台)
◎片  名 Old
◎年  代 2021
◎产  地 美国
◎类  别 剧情 / 悬疑 / 惊悚 / 恐怖
◎语  言 英语
◎上映日期 2021-07-21(法国) / 2021-07-23(美国)
◎IMDb评分  5.8/10 from 42248 users
◎IMDb链接  https://www.imdb.com/title/tt10954652/
◎豆瓣评分 6.3/10 from 12651 users
◎豆瓣链接 https://movie.douban.com/subject/35017064/
◎片  长 108分钟
◎导  演 M·奈特·沙马兰 M. Night Shyamalan
◎编  剧 M·奈特·沙马兰 M. Night Shyamalan / 皮埃尔·莱维 Pierre Levy / 弗雷德里克·皮特斯 Frederick Peeters / Frederik Peeters Frederik Peeters
◎主  演 盖尔·加西亚·贝纳尔 Gael García Bernal
      薇姬·克里普斯 Vicky Krieps
      卢夫斯·塞维尔 Rufus Sewell
      亚历克斯·沃尔夫 Alex Wolff
      托马辛·麦肯齐 Thomasin McKenzie
      阿比·丽 Abbey Lee
      妮基·阿姆卡-伯德 Nikki Amuka-Bird
      肯·梁 Ken Leung
      伊莱扎·斯坎伦 Eliza Scanlen
      亚伦·皮埃尔 Aaron Pierre
      艾伯丝·戴维兹 Embeth Davidtz
      埃蒙·埃利奥特 Emun Elliott
      亚历克莎·斯温顿 Alexa Swinton
      古斯塔夫·汉马斯顿 Gustaf Hammarsten
      凯思琳·查尔方特 Kathleen Chalfant
      弗朗西斯卡·伊斯特伍德 Francesca Eastwood
      M·奈特·沙马兰 M. Night Shyamalan
      马修·希尔 Matthew Shear
      杰弗里·霍尔斯曼 Jeffrey Holsman
      玛格·达·席尔瓦 Margaux Da Silva


◎简  介

  这是一个完美的海滩假日,至少有一家人、一对年轻夫妇、几个游客和一个流亡者都这么认为,他们来到了同一个幽静、田园般的小海湾,那里有岩石池和沙滩,四周环绕着绿油油的、植被茂密的悬崖。但这个乌托邦背后隐藏着一个黑暗的秘密:首先是在水晶般清澈的水中有一具漂浮的女性尸体。还有一个诡异的事实正在上演:所有的孩子都在迅速衰老。很快,每个人都都发现他们正在变老——每半小时一次——而且他们似乎没有任何办法离开这个小海湾。

  沙马兰说这部电影是受到 Pierre Oscar Levy和艺术家Frederik Peeters创作的法国图画小说《沙堡》(Sandcastle)的启发。《沙堡》的故事里有13个人,他们无法离开一个神秘,僻静的海滩,那里隐藏着涉及时间的黑暗秘密。不过漫画里并没有给出这个时间谜团出现的原因,更像是一个关于生存与死亡预言故事。但《OLD》并不是直接改编自这部图像小说,所以沙马兰本人会来讲完这个故事和脑洞。
Video
ID : 1
Format : HEVC
Format/Info : High Efficiency Video Coding
Format profile : Main 10@L5@High
Codec ID : V_MPEGH/ISO/HEVC
Duration : 1 h 48 min
Bit rate : 12.0 Mb/s
Width : 3 840 pixels
Height : 1 606 pixels
Display aspect ratio : 2.40:1
Frame rate mode : Constant
Frame rate : 23.976 FPS
Color space : YUV
Chroma subsampling : 4:2:0
Bit depth : 10 bits
Bits/(Pixel*Frame) : 0.081
Stream size : 9.09 GiB (94%)
Default : Yes
Forced : No
Color range : Limited
Color primaries : BT.709
Transfer characteristics : BT.709
Matrix coefficients : BT.709

Audio
ID : 2
Format : E-AC-3 JOC
Format/Info : Enhanced AC-3 with Joint Object Coding
Commercial name : Dolby Digital Plus with Dolby Atmos
Codec ID : A_EAC3
Duration : 1 h 48 min
Bit rate mode : Constant
Bit rate : 768 kb/s
Channel(s) : 6 channels
Channel layout : L R C LFE Ls Rs
Sampling rate : 48.0 kHz
Frame rate : 31.250 FPS (1536 SPF)
Compression mode : Lossy
Stream size : 596 MiB (6%)
Title : English
Language : English
Service kind : Complete Main
Default : No
Forced : No
Complexity index : 16
Number of dynamic objects : 15
Bed channel count : 1 channel
Bed channel configuration : LFE

Text
ID : 3
Format : UTF-8
Codec ID : S_TEXT/UTF8
Codec ID/Info : UTF-8 Plain Text
Duration : 1 h 39 min
Bit rate : 53 b/s
Count of elements : 1418
Stream size : 39.3 KiB (0%)
Language : English
Default : Yes
Forced : No

下载地址

游客,如果您要查看本帖隐藏内容请回复

游客,如果您要查看本帖隐藏内容请回复






上一篇:阿米蒂维尔之月 / Amityville.Moon (2021) 4K高清版本下载/7.94GB
下一篇:夜间小屋 / The Night House (2020) 4K高清版本下载/18.64GB
回复

使用道具 举报

51

主题

1465

帖子

4215

积分

4K家园VIP

Rank: 9Rank: 9Rank: 9

积分
4215
发表于 2021-10-5 20:35:47 | 显示全部楼层
没人回帖。。。我来个吧
回复 支持 反对

使用道具 举报

3

主题

1619

帖子

4425

积分

4K家园VIP

Rank: 9Rank: 9Rank: 9

积分
4425
发表于 2021-10-6 18:48:11 | 显示全部楼层
嘘,低调。
回复 支持 反对

使用道具 举报

2

主题

1297

帖子

3725

积分

4K家园VIP

Rank: 9Rank: 9Rank: 9

积分
3725
发表于 2021-10-12 13:42:08 | 显示全部楼层
支持下楼主,顶一个
回复 支持 反对

使用道具 举报

0

主题

1317

帖子

3965

积分

4K家园VIP

Rank: 9Rank: 9Rank: 9

积分
3965
发表于 2021-10-13 05:05:46 | 显示全部楼层
有4K版卡,下个看下
回复 支持 反对

使用道具 举报

1

主题

1315

帖子

3961

积分

4K家园VIP

Rank: 9Rank: 9Rank: 9

积分
3961
发表于 前天 23:19 来自手机 | 显示全部楼层
哈哈,我只看看不说话
回复 支持 反对

使用道具 举报

0

主题

1

帖子

6

积分

新手上路

Rank: 1

积分
6
发表于 昨天 01:55 来自手机 | 显示全部楼层
看看
回复

使用道具 举报

您需要登录后才可以回帖 登录 | 立即注册

本版积分规则

精彩图文
Archiver|手机版|TAG|Sitemap|新帖|专题|联系我们:邮箱: 4kjia.com@gmail.com   

4k家园   ©2019