[4K电影] 夜间小屋 / The Night House (2020) 4K高清版本下载/18.64GB

[复制链接]

956

主题

1017

帖子

8614

积分

超级版主

Rank: 8Rank: 8

积分
8614
 楼主| 发表于 2021-10-5 20:42:15 | 显示全部楼层 |阅读模式
本帖最后由 最爱4K哟 于 2021-10-5 21:46 编辑

夜间小屋.png

◎译  名 夜间小屋/夜之屋/夜屋/鬼屋
◎片  名 The Night House
◎年  代 2020
◎产  地 英国,美国
◎类  别 惊悚 / 恐怖
◎语  言 英语
◎上映日期 2020-01-24(圣丹斯电影节) / 2021-08-20(美国)
◎IMDb评分  6.9/10 from 6161 users
◎IMDb链接  https://www.imdb.com/title/tt9731534/
◎豆瓣评分 7.1/10 from 332 users
◎豆瓣链接 https://movie.douban.com/subject/30323687/
◎片  长 107分钟
◎导  演 大卫·布鲁克纳 David Bruckner
◎编  剧 本·柯林斯 Ben Collins / 卢克·皮厄特罗斯基 Luke Piotrowski
◎主  演 丽贝卡·豪尔 Rebecca Hall
      萨拉·古德伯格 Sarah Goldberg
      沃迪·科蒂斯·霍尔 Vondie Curtis-Hall
      伊万·乔尼凯特 Evan Jonigkeit
      斯塔西·马汀 Stacy Martin
      大卫·埃伯利斯 David Abeles
      克里斯蒂娜·杰克逊 Christina Jackson
      帕特里克·克莱因 Patrick Klein
      克里斯托·斯旺 Crystal Swann
      劳拉·奥斯丁 Laura Austin
      雅各布·加勒特·怀特 Jacob Garrett White
      萨曼莎·布克 Samantha Buck
      莉·恩斯林 Lea Enslin


◎简  介

  贝丝(丽贝卡·豪尔 Rebecca Hall饰)在先生欧文(伊万·乔尼凯特 Evan Jonigkeit饰)过世后,独自住在先生生前为她所建造的湖边小屋中,虽然她努力维持正常的生活,但恶梦仍朝她袭来,她感受到屋内似乎有一些不寻常的动静,而在朋友的建议下试图从先生的遗物中 找寻答案,于是她决心解开这令人不安的秘密……
Video
ID : 1
Format : HEVC
Format/Info : High Efficiency Video Coding
Format profile : Main 10@L5@High
Codec ID : V_MPEGH/ISO/HEVC
Duration : 1 h 46 min
Bit rate : 12.0 Mb/s
Width : 3 840 pixels
Height : 1 600 pixels
Display aspect ratio : 2.40:1
Frame rate mode : Constant
Frame rate : 23.976 FPS
Color space : YUV
Chroma subsampling : 4:2:0
Bit depth : 10 bits
Bits/(Pixel*Frame) : 0.082
Stream size : 8.99 GiB (95%)
Default : Yes
Forced : No
Color range : Limited
Color primaries : BT.709
Transfer characteristics : BT.709
Matrix coefficients : BT.709

Audio
ID : 2
Format : E-AC-3
Format/Info : Enhanced AC-3
Commercial name : Dolby Digital Plus
Codec ID : A_EAC3
Duration : 1 h 46 min
Bit rate mode : Constant
Bit rate : 640 kb/s
Channel(s) : 6 channels
Channel layout : L R C LFE Ls Rs
Sampling rate : 48.0 kHz
Frame rate : 31.250 FPS (1536 SPF)
Compression mode : Lossy
Stream size : 490 MiB (5%)
Language : English
Service kind : Complete Main
Default : Yes
Forced : No

Text
ID : 3
Format : UTF-8
Codec ID : S_TEXT/UTF8
Codec ID/Info : UTF-8 Plain Text
Duration : 1 h 39 min
Bit rate : 30 b/s
Count of elements : 833
Stream size : 21.9 KiB (0%)
Language : English
Default : Yes
Forced : No

迅雷下载资源速度为零,资源敏感或被和谐时,推荐使用qBittorrent等无限速下载软件,有条件的推荐115更好的下载软件!


下载地址

游客,如果您要查看本帖隐藏内容请回复

游客,如果您要查看本帖隐藏内容请回复






上一篇:老去 / Old (2021) 4K高清版本下载/11.56GB
下一篇:八年级 / Eighth Grade‎ (2018) 4K高清版本下载/12.11GB
回复

使用道具 举报

53

主题

1187

帖子

3627

积分

4K家园VIP

Rank: 9Rank: 9Rank: 9

积分
3627
发表于 2021-10-5 20:42:20 来自手机 | 显示全部楼层
分享的不错,希望楼主继续分享
回复 支持 反对

使用道具 举报

0

主题

22

帖子

218

积分

新手上路

Rank: 1

积分
218
发表于 2021-10-7 01:01:18 | 显示全部楼层
分享的不错,希望楼主继续分享
回复 支持 反对

使用道具 举报

55

主题

1553

帖子

4475

积分

4K家园VIP

Rank: 9Rank: 9Rank: 9

积分
4475
发表于 2021-10-8 10:54:39 来自手机 | 显示全部楼层
试试看吧
回复 支持 反对

使用道具 举报

59

主题

1430

帖子

4144

积分

4K家园VIP

Rank: 9Rank: 9Rank: 9

积分
4144
发表于 2021-10-11 20:29:17 | 显示全部楼层
沙发位出租,
回复 支持 反对

使用道具 举报

0

主题

56

帖子

113

积分

新手上路

Rank: 1

积分
113
发表于 2021-10-12 00:52:10 | 显示全部楼层

Where is Administration 4kjia.com?

Can I contact admin??
I'ts important.
Thanks.
回复 支持 反对

使用道具 举报

4

主题

1667

帖子

4635

积分

4K家园VIP

Rank: 9Rank: 9Rank: 9

积分
4635
发表于 2021-10-12 20:20:40 | 显示全部楼层
我了个去,顶了
回复 支持 反对

使用道具 举报

48

主题

1544

帖子

4444

积分

4K家园VIP

Rank: 9Rank: 9Rank: 9

积分
4444
发表于 2021-10-13 02:36:30 | 显示全部楼层
不错 支持下
回复 支持 反对

使用道具 举报

您需要登录后才可以回帖 登录 | 立即注册

本版积分规则

精彩图文
Archiver|手机版|TAG|Sitemap|新帖|专题|联系我们:邮箱: 4kjia.com@gmail.com   

4k家园   ©2019