[4K电影] 八年级 / Eighth Grade‎ (2018) 4K高清版本下载/12.11GB

[复制链接]

942

主题

1003

帖子

8494

积分

超级版主

Rank: 8Rank: 8

积分
8494
 楼主| 发表于 2021-10-5 20:48:08 | 显示全部楼层 |阅读模式
本帖最后由 最爱4K哟 于 2021-10-5 21:49 编辑

八年级.png

◎译  名 八年级/8th Grade/The Coolest Girl in the World
◎片  名 Eighth Grade
◎年  代 2018
◎产  地 美国
◎类  别 喜剧
◎语  言 英语
◎上映日期 2018-01-19(圣丹斯电影节) / 2018-08-03(美国)
◎IMDb评分  7.4/10 from 70036 users
◎IMDb链接  https://www.imdb.com/title/tt7014006/
◎豆瓣评分 6.6/10 from 8979 users
◎豆瓣链接 https://movie.douban.com/subject/27109381/
◎片  长 94分钟
◎导  演 博·伯翰 Bo Burnham
◎编  剧 博·伯翰 Bo Burnham
◎主  演 艾尔西·费舍尔 Elsie Fisher
      约什·汉密尔顿 Josh Hamilton
      艾米丽·罗宾森 Emily Robinson
      杰克·莱恩 Jake Ryan
      丹尼尔·祖尔格哈德利 Daniel Zolghadri
      弗莱德·赫钦格 Fred Hechinger
      艾曼尼·刘易斯 Imani Lewis
      卢克·普拉尔 Luke Prael
      凯瑟琳·奥利维雷 Catherine Oliviere
      诺拉·姆林斯 Nora Mullins
      蜜西·雅格 Missy Yager
      格雷戈·克罗 Greg Crowe
      弗兰克·迪尔 Frank Deal
      黛博拉·安格 Deborah Unger
      威廉·温施 William Wunsch
      丹·陈 Dan Chen
      汤姆·斯特拉特福 Tom Stratford
      J·塔克·史密斯 J. Tucker Smith
      沙察·捷米罗夫 Shacha Temirov
      玛格丽特·斯廷普森 Marguerite Stimpson
      凯文·R·弗里 Kevin R. Free
      娜塔莉·卡特 Natalie Carter
      大卫·石 David Shih
      托马斯·约翰·奥雷利 Thomas John O'Reilly


◎简  介

  故事讲述13岁的凯拉(艾尔西·费舍尔 饰)在初中的最后一周,所经历的青春故事...

◎获奖情况

  第76届金球奖 ?(2019)
  电影类音乐/喜剧片最佳女主角(提名) 艾尔西·费舍尔

  第34届圣丹斯电影节 ?(2018)
  评审团大奖剧情片(提名) 博·伯翰

  第71届美国导演工会奖 ?(2019)
  最佳新人导演奖 博·伯翰

  第71届美国编剧工会奖 ?(2019)
  电影奖最佳原创剧本 博·伯翰

  第84届纽约影评人协会奖 ?(2018)
  最佳处女作

  第90届美国国家评论协会奖 ?(2018)
  最佳导演处女作 博·伯翰
  年度佳片

  第24届美国评论家选择电影奖 ?(2019)
  最佳青少年演员 艾尔西·费舍尔
  喜剧片最佳女主角(提名) 艾尔西·费舍尔
  最佳原创剧本(提名) 博·伯翰

  第34届美国独立精神奖 ?(2019)
  最佳影片(提名)
  最佳女主角(提名) 艾尔西·费舍尔
  最佳男配角(提名) 约什·汉密尔顿
  最佳处女作剧本 博·伯翰

  第28届哥谭独立电影奖 ?(2018)
  年度突破演员 艾尔西·费舍尔
  最佳突破导演奖 博·伯翰

  第19届美国电影学会奖 ?(2018)
  年度佳片

  第23届金卫星奖 ?(2019)
  电影部门喜剧/音乐片最佳女主角(提名) 艾尔西·费舍尔
  电影部门最佳独立片(提名)
  电影部门最佳原创剧本(提名) 博·伯翰

  第17届华盛顿影评人协会奖 ?(2018)
  最佳原创剧本(提名) 博·伯翰
  最佳青少年表演 艾尔西·费舍尔

  第39届波士顿影评人协会奖 ?(2018)
  最佳处女作 博·伯翰

  第31届芝加哥影评人协会奖 ?(2018)
  最佳原创剧本(提名) 博·伯翰
  最具潜力演员 艾尔西·费舍尔
  最具潜力导演(提名) 博·伯翰

  第17届旧金山影评人协会奖 ?(2018)
  最佳原创剧本(提名) 博·伯翰

  第18届温哥华影评人协会奖 ?(2018)
  最佳剧本(提名) 博·伯翰

  第52届堪萨斯影评人协会奖 ?(2018)
  最佳原创剧本(提名)

  第18届凤凰城影评人协会奖 ?(2018)
  最具突破表演 艾尔西·费舍尔
  最佳青年女演员 艾尔西·费舍尔

  第12届底特律影评人协会奖 ?(2018)
  最佳影片
  最佳男配角 约什·汉密尔顿

  第3届亚特兰大影评人协会奖 ?(2018)
  十佳影片
  突破表演奖 艾尔西·费舍尔

  第22届美国在线影评人协会奖 ?(2019)
  最佳影片(提名)
  最佳原创剧本(提名) 博·伯翰
  最佳新导演(提名) 博·伯翰
Video
ID : 1
Format : HEVC
Format/Info : High Efficiency Video Coding
Format profile : Main 10@L5@Main
HDR format : Dolby Vision, Version 1.0, dvhe.05.06, BL+RPU
Codec ID : V_MPEGH/ISO/HEVC
Duration : 1 h 33 min
Bit rate : 14.9 Mb/s
Width : 3 840 pixels
Height : 2 160 pixels
Display aspect ratio : 16:9
Frame rate mode : Constant
Frame rate : 23.976 (24000/1001/189150) FPS
Color space : YUV
Chroma subsampling : 4:2:0
Bit depth : 10 bits
Bits/(Pixel*Frame) : 0.075
Stream size : 9.72 GiB (80%)
Writing library : x265 2.8hy:[Linux][GCC 7.5.0][64 bit] 10bit
Encoding settings : cpuid=1111039 / frame-threads=1 / no-wpp / no-pmode / no-pme / no-psnr / no-ssim / log-level=2 / input-csp=1 / input-res=3840x2160 / interlace=0 / total-frames=0 / level-idc=0 / high-tier=1 / uhd-bd=0 / ref=4 / no-allow-non-conformance / repeat-headers / annexb / aud / hrd / info / hash=0 / no-temporal-layers / no-open-gop / min-keyint=48 / keyint=48 / gop-lookahead=0 / bframes=4 / b-adapt=2 / b-pyramid / bframe-bias=0 / rc-lookahead=48 / lookahead-slices=4 / scenecut=0 / radl=0 / no-intra-refresh / ctu=64 / min-cu-size=8 / rect / no-amp / max-tu-size=32 / tu-inter-depth=1 / tu-intra-depth=1 / limit-tu=0 / rdoq-level=2 / dynamic-rd=0.00 / no-ssim-rd / signhide / no-tskip / nr-intra=100 / nr-inter=400 / no-constrained-intra / strong-intra-smoothing / max-merge=3 / limit-refs=3 / limit-modes / me=3 / subme=3 / merange=57 / temporal-mvp / weightp / no-weightb / no-analyze-src-pics / deblock=0:0 / sao / no-sao-non-deblock / rd=4 / no-early-skip / rskip / no-fast-intra / no-tskip-fast / no-cu-lossless / no-b-intra / no-splitrd-skip / rdpenalty=0 / psy-rd=0.00 / psy-rdoq=1.00 / no-rd-refine / no-lossless / cbqpoffs=0 / crqpoffs=3 / rc=abr / bitrate=15000 / qcomp=0.60 / qpstep=4 / stats-write=0 / stats-read=2 / cplxblur=20.0 / qblur=0.5 / vbv-maxrate=18000 / vbv-bufsize=12000 / vbv-init=0.6 / vbv-end=0.6 / vbv-end-fr-adj=0.0 / ipratio=1.40 / pbratio=1.30 / aq-mode=1 / aq-strength=1.00 / cutree / zone-count=0 / no-strict-cbr / qg-size=32 / no-rc-grain / qpmax=69 / qpmin=0 / no-const-vbv / sar=1 / overscan=0 / videoformat=5 / range=1 / colorprim=2 / transfer=2 / colormatrix=2 / chromaloc=0 / display-window=0 / max-cll=0,0 / min-luma=0 / max-luma=1023 / log2-max-poc-lsb=8 / vui-timing-info / vui-hrd-info / no-concatenation / slices=1 / no-opt-qp-pps / no-opt-ref-list-length-pps / no-multi-pass-opt-rps / scenecut-bias=0.05 / no-opt-cu-delta-qp / no-aq-motion / no-hdr / no-hdr-opt / no-dhdr10-opt / no-idr-recovery-sei / analysis-reuse-level=5 / scale-factor=0 / refine-intra=0 / refine-inter=0 / refine-mv=0 / no-limit-sao / ctu-info=0 / no-lowpass-dct / refine-mv-type=0 / copy-pic=1 / max-ausize-factor=1.0 / no-dynamic-refine / no-single-sei
Default : Yes
Forced : No
Color range : Full

Audio #1
ID : 2
Format : DTS XLL
Format/Info : Digital Theater Systems
Commercial name : DTS-HD Master Audio
Codec ID : A_DTS
Duration : 1 h 33 min
Bit rate mode : Variable
Bit rate : 3 228 kb/s
Channel(s) : 6 channels
Channel layout : C L R Ls Rs LFE
Sampling rate : 48.0 kHz
Frame rate : 93.750 FPS (512 SPF)
Bit depth : 24 bits
Compression mode : Lossless
Delay relative to video : 3 ms
Stream size : 2.11 GiB (17%)
Title : English
Language : English
Default : Yes
Forced : No

Audio #2
ID : 3
Format : AC-3
Format/Info : Audio Coding 3
Commercial name : Dolby Digital
Codec ID : A_AC3
Duration : 1 h 33 min
Bit rate mode : Constant
Bit rate : 384 kb/s
Channel(s) : 6 channels
Channel layout : L R C LFE Ls Rs
Sampling rate : 48.0 kHz
Frame rate : 31.250 FPS (1536 SPF)
Compression mode : Lossy
Stream size : 257 MiB (2%)
Title : DD 5.1
Language : English
Service kind : Complete Main
Default : No
Forced : No

Text #1
ID : 4
Format : UTF-8
Codec ID : S_TEXT/UTF8
Codec ID/Info : UTF-8 Plain Text
Duration : 1 h 30 min
Bit rate : 98 b/s
Count of elements : 2102
Stream size : 65.3 KiB (0%)
Title : English
Language : English
Default : Yes
Forced : No

Text #2
ID : 5
Format : PGS
Muxing mode : zlib
Codec ID : S_HDMV/PGS
Codec ID/Info : Picture based subtitle format used on BDs/HD-DVDs
Duration : 1 h 30 min
Bit rate : 47.9 kb/s
Count of elements : 2744
Stream size : 31.0 MiB (0%)
Title : English (SDH)
Language : English
Default : No
Forced : No

Text #3
ID : 6
Format : PGS
Muxing mode : zlib
Codec ID : S_HDMV/PGS
Codec ID/Info : Picture based subtitle format used on BDs/HD-DVDs
Duration : 1 h 30 min
Bit rate : 38.4 kb/s
Count of elements : 2578
Stream size : 24.8 MiB (0%)
Title : Spanish
Language : Spanish
Default : No
Forced : No

Menu
00:00:00.000 : :00:00:00.000
00:05:44.636 : :00:05:44.636
00:11:00.535 : :00:11:00.535
00:16:20.855 : :00:16:20.855
00:19:55.986 : :00:19:55.986
00:27:18.095 : :00:27:18.095
00:33:08.445 : :00:33:08.445
00:39:54.809 : :00:39:54.809
00:43:08.878 : :00:43:08.878
00:49:21.375 : :00:49:21.375
00:54:41.153 : :00:54:41.153
01:01:44.701 : :01:01:44.701
01:09:07.393 : :01:09:07.393
01:13:05.881 : :01:13:05.881
01:15:39.076 : :01:15:39.076
01:22:23.188 : :01:22:23.188

迅雷下载资源速度为零,资源敏感或被和谐时,推荐使用qBittorrent等无限速下载软件,有条件的推荐115更好的下载软件!

下载地址  

游客,如果您要查看本帖隐藏内容请回复

游客,如果您要查看本帖隐藏内容请回复

游客,如果您要查看本帖隐藏内容请回复

游客,如果您要查看本帖隐藏内容请回复






上一篇:夜间小屋 / The Night House (2020) 4K高清版本下载/18.64GB
下一篇:断裂(内封中字) / Fractured (2019) 4K高清版本下载/8.55GB
回复

使用道具 举报

5

主题

1440

帖子

4164

积分

4K家园VIP

Rank: 9Rank: 9Rank: 9

积分
4164
发表于 2021-10-5 20:48:12 | 显示全部楼层
珍爱生命,果断回帖。
回复 支持 反对

使用道具 举报

1

主题

1213

帖子

3655

积分

4K家园VIP

Rank: 9Rank: 9Rank: 9

积分
3655
发表于 2021-10-5 20:48:12 来自手机 | 显示全部楼层
垃圾
回复 支持 反对

使用道具 举报

1

主题

1104

帖子

3332

积分

4K家园VIP

Rank: 9Rank: 9Rank: 9

积分
3332
发表于 2021-10-5 20:48:12 | 显示全部楼层
我了个去,顶了
回复 支持 反对

使用道具 举报

55

主题

1420

帖子

4114

积分

4K家园VIP

Rank: 9Rank: 9Rank: 9

积分
4114
发表于 2021-10-5 20:48:12 | 显示全部楼层
有空一起交流一下
回复 支持 反对

使用道具 举报

1

主题

1257

帖子

3785

积分

4K家园VIP

Rank: 9Rank: 9Rank: 9

积分
3785
发表于 2021-10-11 17:36:33 | 显示全部楼层
不错 支持下
回复 支持 反对

使用道具 举报

0

主题

56

帖子

113

积分

新手上路

Rank: 1

积分
113
发表于 2021-10-11 20:49:53 | 显示全部楼层

Where is Administration 4kjia.com?

Can I contact admin??
It is important.
Regards.
回复 支持 反对

使用道具 举报

您需要登录后才可以回帖 登录 | 立即注册

本版积分规则

精彩图文
Archiver|手机版|TAG|Sitemap|新帖|专题|联系我们:邮箱: 4kjia.com@gmail.com   

4k家园   ©2019