[4K电影] 房间 / Room (2015) 4K高清版本下载/14.50GB

[复制链接]

942

主题

1003

帖子

8494

积分

超级版主

Rank: 8Rank: 8

积分
8494
 楼主| 发表于 2021-10-5 21:09:29 | 显示全部楼层 |阅读模式
本帖最后由 最爱4K哟 于 2021-10-5 21:51 编辑

房间.png

◎译  名 房间/不存在的房间(台)/抖室(港)
◎片  名 Room
◎年  代 2015
◎产  地 爱尔兰,加拿大,英国,美国
◎类  别 剧情 / 家庭
◎语  言 英语
◎上映日期 2015-09-04(特柳赖德电影节) / 2015-10-23(多伦多) / 2016-01-15(爱尔兰/英国) / 2016-01-22(美国)
◎IMDb评分  8.1/10 from 393441 users
◎IMDb链接  https://www.imdb.com/title/tt3170832/
◎豆瓣评分 8.8/10 from 328798 users
◎豆瓣链接 https://movie.douban.com/subject/25724855/
◎片  长 118分钟
◎导  演 伦尼·阿伯拉罕森 Lenny Abrahamson
◎编  剧 艾玛·多诺霍 Emma Donoghue
◎主  演 布丽·拉尔森 Brie Larson
      雅各布·特伦布莱 Jacob Tremblay
      肖恩·布里吉格斯 Sean Bridgers
      温迪·古逊 Wendy Crewson
      阿曼达·布鲁盖尔 Amanda Brugel
      乔·平格 Joe Pingue
      琼·艾伦 Joan Allen
      卡斯·安瓦尔 Cas Anvar
      威廉姆·H·梅西 William H. Macy
      兰道尔·爱德华 Randal Edwards
      罗德里戈-费尔南德斯-斯托尔 Rodrigo Fernandez-Stoll
      罗里·奥谢 Rory O'Shea
      汤姆·麦卡穆斯 Tom McCamus
      杰克·富尔顿 Jack Fulton
      梅根·帕克 Megan Park
      德里克·赫德 Derek Herd
      凯特·德拉蒙德 Kate Drummond


◎简  介

  女孩乔伊(布丽·拉尔森 Brie Larson 饰)被一个叫“老尼克”的男人拐骗,之后被他囚禁在其房子后院的棚屋里长达七年之久。在此期间她遭到强奸,并生下儿子杰克(雅各布·特伦布莱 Jacob Tremblay 饰)。靠着老尼克时不时的物资补给,母子二人艰难度日。尽管如此,母亲还是竭尽所能,为儿子杰克创造了一个安全而开心的成长空间。这个狭小逼仄的房间,成了杰克生活成长的神奇小天地。在杰克度过了他的五岁生日后,母亲决定告诉他真相,在这个小小的房间外面,有着更广阔的世界。他们开始策划逃跑计划,决心要逃出这个囚禁他们的房间……

  本片根据艾玛·唐纳修的同名小说改编。

◎获奖情况

  第88届奥斯卡金像奖 ?(2016)
  最佳影片(提名) 艾德·格尼
  最佳导演(提名) 伦尼·阿伯拉罕森
  最佳女主角 布丽·拉尔森
  最佳改编剧本(提名) 艾玛·多诺霍

  第73届金球奖 ?(2016)
  电影类最佳剧情片(提名)
  电影类剧情片最佳女主角 布丽·拉尔森
  电影类最佳编剧(提名) 艾玛·多诺霍

  第69届英国电影学院奖 ?(2016)
  电影奖最佳女主角 布丽·拉尔森
  电影奖最佳改编剧本(提名) 艾玛·多诺霍

  第29届欧洲电影奖 ?(2016)
  最佳影片(提名)
  最佳编剧(提名)

  第40届多伦多国际电影节 ?(2015)
  观众选择奖 伦尼·阿伯拉罕森

  第22届美国演员工会奖 ?(2016)
  电影奖最佳女主角 布丽·拉尔森
  电影奖最佳男配角(提名) 雅各布·特伦布莱

  第87届美国国家评论协会奖 ?(2015)
  最佳女主角 布丽·拉尔森
  最佳新人男演员 雅各布·特伦布莱
  年度佳片

  第21届美国评论家选择电影奖 ?(2016)
  最佳影片(提名)
  最佳女主角 布丽·拉尔森
  最佳青少年演员 雅各布·特伦布莱
  最佳改编剧本(提名) 艾玛·多诺霍

  第31届美国独立精神奖 ?(2016)
  最佳女主角 布丽·拉尔森
  最佳处女作剧本 艾玛·多诺霍
  最佳剪辑(提名) 内森·纽金特

  第18届英国独立电影奖 ?(2015)
  最佳外国独立电影

  第16届美国电影学会奖 ?(2015)
  年度佳片

  第14届华盛顿影评人协会奖 ?(2015)
  最佳改编剧本
  最佳青少年表演 雅各布·特伦布莱

  第28届芝加哥影评人协会奖 ?(2015)
  最佳女主角 布丽·拉尔森
  最具潜力演员 雅各布·特伦布莱

  第19届美国在线影评人协会奖 ?(2015)
  最佳影片(提名)
  最佳女主角(提名) 布丽·拉尔森
  最佳改编剧本(提名) 艾玛·多诺霍

  第3届豆瓣电影年度榜单 ?(2016)
  3月最受关注电影(提名)

  第6届豆瓣电影鑫像奖 ?(2016)
  鑫豆单元最佳影片(外语)(提名)
  鑫豆单元最佳导演(外语)(提名) 伦尼·阿伯拉罕森
  鑫豆单元最佳男演员(外语)(提名) 雅各布·特伦布莱
  鑫豆单元最佳女演员(外语)(提名) 布丽·拉尔森
Video
ID : 1
Format : HEVC
Format/Info : High Efficiency Video Coding
Format profile : Main@L5@Main
Codec ID : V_MPEGH/ISO/HEVC
Duration : 1 h 57 min
Bit rate : 14.3 Mb/s
Width : 3 840 pixels
Height : 2 160 pixels
Display aspect ratio : 16:9
Frame rate mode : Constant
Frame rate : 23.976 (24000/1001/189150) FPS
Color space : YUV
Chroma subsampling : 4:2:0
Bit depth : 8 bits
Bits/(Pixel*Frame) : 0.072
Stream size : 11.7 GiB (81%)
Writing library : x265 2.8hy:[Linux][GCC 7.5.0][64 bit] 8bit
Encoding settings : cpuid=1111039 / frame-threads=1 / no-wpp / no-pmode / no-pme / no-psnr / no-ssim / log-level=2 / input-csp=1 / input-res=3840x2160 / interlace=0 / total-frames=0 / level-idc=0 / high-tier=1 / uhd-bd=0 / ref=4 / no-allow-non-conformance / repeat-headers / annexb / aud / hrd / info / hash=0 / no-temporal-layers / no-open-gop / min-keyint=48 / keyint=48 / gop-lookahead=0 / bframes=4 / b-adapt=2 / b-pyramid / bframe-bias=0 / rc-lookahead=48 / lookahead-slices=4 / scenecut=0 / radl=0 / no-intra-refresh / ctu=64 / min-cu-size=8 / rect / no-amp / max-tu-size=32 / tu-inter-depth=1 / tu-intra-depth=1 / limit-tu=0 / rdoq-level=2 / dynamic-rd=0.00 / no-ssim-rd / signhide / no-tskip / nr-intra=100 / nr-inter=400 / no-constrained-intra / strong-intra-smoothing / max-merge=3 / limit-refs=3 / limit-modes / me=3 / subme=3 / merange=57 / temporal-mvp / weightp / no-weightb / no-analyze-src-pics / deblock=0:0 / sao / no-sao-non-deblock / rd=4 / no-early-skip / rskip / no-fast-intra / no-tskip-fast / no-cu-lossless / no-b-intra / no-splitrd-skip / rdpenalty=0 / psy-rd=0.00 / psy-rdoq=1.00 / no-rd-refine / no-lossless / cbqpoffs=0 / crqpoffs=0 / rc=abr / bitrate=15000 / qcomp=0.60 / qpstep=4 / stats-write=0 / stats-read=2 / cplxblur=20.0 / qblur=0.5 / vbv-maxrate=18000 / vbv-bufsize=12000 / vbv-init=0.6 / vbv-end=0.6 / vbv-end-fr-adj=0.0 / ipratio=1.40 / pbratio=1.30 / aq-mode=1 / aq-strength=1.00 / cutree / zone-count=0 / no-strict-cbr / qg-size=32 / no-rc-grain / qpmax=69 / qpmin=0 / no-const-vbv / sar=1 / overscan=0 / videoformat=5 / range=0 / colorprim=1 / transfer=1 / colormatrix=1 / chromaloc=0 / display-window=0 / max-cll=0,0 / min-luma=0 / max-luma=255 / log2-max-poc-lsb=8 / vui-timing-info / vui-hrd-info / no-concatenation / slices=1 / no-opt-qp-pps / no-opt-ref-list-length-pps / no-multi-pass-opt-rps / scenecut-bias=0.05 / no-opt-cu-delta-qp / no-aq-motion / no-hdr / no-hdr-opt / no-dhdr10-opt / no-idr-recovery-sei / analysis-reuse-level=5 / scale-factor=0 / refine-intra=0 / refine-inter=0 / refine-mv=0 / no-limit-sao / ctu-info=0 / no-lowpass-dct / refine-mv-type=0 / copy-pic=1 / max-ausize-factor=1.0 / no-dynamic-refine / no-single-sei
Default : Yes
Forced : No
Color range : Limited
Color primaries : BT.709
Transfer characteristics : BT.709
Matrix coefficients : BT.709

Audio #1
ID : 2
Format : DTS XLL
Format/Info : Digital Theater Systems
Commercial name : DTS-HD Master Audio
Codec ID : A_DTS
Duration : 1 h 57 min
Bit rate mode : Variable
Bit rate : 2 966 kb/s
Channel(s) : 6 channels
Channel layout : C L R Ls Rs LFE
Sampling rate : 48.0 kHz
Frame rate : 93.750 FPS (512 SPF)
Bit depth : 24 bits
Compression mode : Lossless
Delay relative to video : 2 ms
Stream size : 2.43 GiB (17%)
Title : DTS-HD MA 5.1
Language : English
Default : Yes
Forced : No

Audio #2
ID : 3
Format : AC-3
Format/Info : Audio Coding 3
Commercial name : Dolby Digital
Codec ID : A_AC3
Duration : 1 h 57 min
Bit rate mode : Constant
Bit rate : 384 kb/s
Channel(s) : 6 channels
Channel layout : L R C LFE Ls Rs
Sampling rate : 48.0 kHz
Frame rate : 31.250 FPS (1536 SPF)
Compression mode : Lossy
Stream size : 323 MiB (2%)
Language : English
Service kind : Complete Main
Default : Yes
Forced : No

Text #1
ID : 4
Format : UTF-8
Codec ID : S_TEXT/UTF8
Codec ID/Info : UTF-8 Plain Text
Duration : 1 h 50 min
Bit rate : 76 b/s
Count of elements : 2230
Stream size : 61.7 KiB (0%)
Title : SRT
Language : English
Default : Yes
Forced : No

Text #2
ID : 5
Format : PGS
Muxing mode : zlib
Codec ID : S_HDMV/PGS
Codec ID/Info : Picture based subtitle format used on BDs/HD-DVDs
Duration : 1 h 51 min
Bit rate : 32.3 kb/s
Count of elements : 3518
Stream size : 25.7 MiB (0%)
Title : English (SDH)
Language : English
Default : No
Forced : No

Text #3
ID : 6
Format : PGS
Muxing mode : zlib
Codec ID : S_HDMV/PGS
Codec ID/Info : Picture based subtitle format used on BDs/HD-DVDs
Duration : 1 h 50 min
Bit rate : 29.3 kb/s
Count of elements : 2465
Stream size : 23.1 MiB (0%)
Title : Spanish (Latin American)
Language : Spanish
Default : No
Forced : No

Menu
00:00:00.000 : Chapter 1
00:07:07.427 : Chapter 2
00:12:23.033 : Chapter 3
00:24:29.759 : Chapter 4
00:31:11.786 : Chapter 5
00:37:16.859 : Chapter 6
00:47:27.761 : Chapter 7
00:52:27.018 : Chapter 8
00:59:46.040 : Chapter 9
01:09:29.582 : Chapter 10
01:16:51.523 : Chapter 11
01:23:52.861 : Chapter 12
01:31:30.943 : Chapter 13
01:37:03.150 : Chapter 14
01:43:28.493 : Chapter 15
01:48:23.955 : Chapter 16

迅雷下载资源速度为零,资源敏感或被和谐时,推荐使用qBittorrent等无限速下载软件,有条件的推荐115更好的下载软件!

下载地址

游客,如果您要查看本帖隐藏内容请回复






上一篇:诡屋惊魂(内封中字) (2021) 4K高清版本下载/11.09GB
下一篇:史蒂夫·乔布斯 / Steve Jobs (2015) 4K高清版本下载/16.18GB
回复

使用道具 举报

46

主题

1389

帖子

3995

积分

4K家园VIP

Rank: 9Rank: 9Rank: 9

积分
3995
发表于 2021-10-5 21:09:33 | 显示全部楼层
楼主这资源不错,我收藏了
回复 支持 反对

使用道具 举报

2

主题

1365

帖子

3915

积分

4K家园VIP

Rank: 9Rank: 9Rank: 9

积分
3915
发表于 2021-10-5 21:09:33 | 显示全部楼层
我了个去,顶了
回复 支持 反对

使用道具 举报

0

主题

1306

帖子

3740

积分

4K家园VIP

Rank: 9Rank: 9Rank: 9

积分
3740
发表于 2021-10-6 03:27:13 | 显示全部楼层
试试先,好用再说
回复 支持 反对

使用道具 举报

0

主题

78

帖子

5198

积分

高级会员

Rank: 3Rank: 3

积分
5198
发表于 2021-10-6 08:59:50 | 显示全部楼层
谢谢分享=====
回复 支持 反对

使用道具 举报

0

主题

161

帖子

978

积分

新手上路

Rank: 1

积分
978
发表于 2021-10-6 12:50:36 | 显示全部楼层
谢谢楼主分享
回复 支持 反对

使用道具 举报

0

主题

642

帖子

2238

积分

注册会员

Rank: 2

积分
2238
发表于 2021-10-6 19:57:50 | 显示全部楼层
感谢分享!!!
回复

使用道具 举报

0

主题

161

帖子

978

积分

新手上路

Rank: 1

积分
978
发表于 2021-10-7 12:18:35 | 显示全部楼层
感谢楼主分享
回复 支持 反对

使用道具 举报

40

主题

1457

帖子

4175

积分

4K家园VIP

Rank: 9Rank: 9Rank: 9

积分
4175
发表于 2021-10-8 11:22:41 | 显示全部楼层
佩服佩服!
回复 支持 反对

使用道具 举报

2

主题

1138

帖子

3434

积分

4K家园VIP

Rank: 9Rank: 9Rank: 9

积分
3434
发表于 2021-10-10 04:57:04 | 显示全部楼层
试试先,好用再说
回复 支持 反对

使用道具 举报

您需要登录后才可以回帖 登录 | 立即注册

本版积分规则

精彩图文
Archiver|手机版|TAG|Sitemap|新帖|专题|联系我们:邮箱: 4kjia.com@gmail.com   

4k家园   ©2019