[4K电影] 史蒂夫·乔布斯 / Steve Jobs (2015) 4K高清版本下载/16.18GB

[复制链接]

942

主题

1003

帖子

8494

积分

超级版主

Rank: 8Rank: 8

积分
8494
 楼主| 发表于 2021-10-5 21:13:35 | 显示全部楼层 |阅读模式
本帖最后由 最爱4K哟 于 2021-10-7 16:36 编辑

史蒂夫·乔布斯.png

◎译  名 史蒂夫·乔布斯:机器人生
◎片  名 Steve Jobs: Man in the Machine
◎年  代 2015
◎产  地 美国
◎类  别 纪录片
◎语  言 英语
◎上映日期 2015-09-04(美国)
◎IMDb评分  7.2/10 from 162253 users
◎IMDb链接  https://www.imdb.com/title/tt2080374/
◎豆瓣评分 7.6/10 from 2374 users
◎豆瓣链接 https://movie.douban.com/subject/26323045/
◎片  长 128分钟
◎导  演 亚历克斯·吉布尼 Alex Gibney
◎编  剧 亚历克斯·吉布尼 Alex Gibney
◎主  演 史蒂夫·乔布斯 Steve Jobs
      蒂姆·库克 Tim Cook


◎简  介

  这部纪录片由吉布内和CNN Films合作拍摄,纪录了从乔布斯的童年住所到日本佛寺,再到苹果总部的办公室,回顾了乔布斯的人生经历。

Video
ID : 1
Format : HEVC
Format/Info : High Efficiency Video Coding
Format profile : Main@L5@High
Codec ID : V_MPEGH/ISO/HEVC
Duration : 2 h 2 min
Bit rate : 14.6 Mb/s
Width : 3 840 pixels
Height : 2 160 pixels
Display aspect ratio : 16:9
Frame rate mode : Constant
Frame rate : 23.976 (24000/1001) FPS
Color space : YUV
Chroma subsampling : 4:2:0
Bit depth : 8 bits
Bits/(Pixel*Frame) : 0.073
Stream size : 12.5 GiB (77%)
Default : Yes
Forced : No
Color range : Limited
Color primaries : BT.709
Transfer characteristics : BT.709
Matrix coefficients : BT.709

Audio #1
ID : 2
Format : DTS XLL
Format/Info : Digital Theater Systems
Commercial name : DTS-HD Master Audio
Codec ID : A_DTS
Duration : 2 h 2 min
Bit rate mode : Variable
Bit rate : 3 833 kb/s
Channel(s) : 6 channels
Channel layout : C L R Ls Rs LFE
Sampling rate : 48.0 kHz
Frame rate : 93.750 FPS (512 SPF)
Bit depth : 24 bits
Compression mode : Lossless
Delay relative to video : 200 ms
Stream size : 3.28 GiB (20%)
Title : DTS-HD MA 5.1
Language : English
Default : Yes
Forced : No

Audio #2
ID : 3
Format : AAC LC
Format/Info : Advanced Audio Codec Low Complexity
Codec ID : A_AAC-2
Duration : 2 h 2 min
Bit rate : 445 kb/s
Channel(s) : 6 channels
Channel layout : C L R Ls Rs LFE
Sampling rate : 48.0 kHz
Frame rate : 46.875 FPS (1024 SPF)
Compression mode : Lossy
Stream size : 389 MiB (2%)
Title : AAC 5.1
Language : English
Default : No
Forced : No

Text #1
ID : 4
Format : UTF-8
Codec ID : S_TEXT/UTF8
Codec ID/Info : UTF-8 Plain Text
Duration : 2 h 1 min
Bit rate : 109 b/s
Count of elements : 2307
Stream size : 97.6 KiB (0%)
Title : SRT
Language : English
Default : Yes
Forced : No

Text #2
ID : 5
Format : PGS
Muxing mode : zlib
Codec ID : S_HDMV/PGS
Codec ID/Info : Picture based subtitle format used on BDs/HD-DVDs
Duration : 1 h 57 min
Bit rate : 72.7 kb/s
Count of elements : 5230
Stream size : 61.3 MiB (0%)
Title : SDH
Language : English
Default : No
Forced : No

Text #3
ID : 6
Format : PGS
Muxing mode : zlib
Codec ID : S_HDMV/PGS
Codec ID/Info : Picture based subtitle format used on BDs/HD-DVDs
Duration : 2 h 1 min
Bit rate : 59.5 kb/s
Count of elements : 4764
Stream size : 51.8 MiB (0%)
Language : French
Default : No
Forced : No

Text #4
ID : 7
Format : PGS
Muxing mode : zlib
Codec ID : S_HDMV/PGS
Codec ID/Info : Picture based subtitle format used on BDs/HD-DVDs
Duration : 2 h 1 min
Bit rate : 60.7 kb/s
Count of elements : 4774
Stream size : 52.9 MiB (0%)
Language : Spanish
Default : No
Forced : No

Menu
00:00:00.000 : Chapter 1
00:04:52.417 : Chapter 2
00:11:47.415 : Chapter 3
00:15:56.205 : Chapter 4
00:24:39.770 : Chapter 5
00:29:00.322 : Chapter 6
00:35:35.717 : Chapter 7
00:41:45.336 : Chapter 8
00:47:28.929 : Chapter 9
00:52:04.538 : Chapter 10
00:57:24.983 : Chapter 11
01:01:17.799 : Chapter 12
01:10:43.406 : Chapter 13
01:13:47.423 : Chapter 14
01:19:03.697 : Chapter 15
01:25:57.694 : Chapter 16
01:33:39.280 : Chapter 17
01:42:26.432 : Chapter 18
01:49:10.711 : Chapter 19
01:58:14.462 : Chapter 20

迅雷下载资源速度为零,资源敏感或被和谐时,推荐使用qBittorrent等无限速下载软件,有条件的推荐115更好的下载软件!

下载地址

游客,如果您要查看本帖隐藏内容请回复






上一篇:房间 / Room (2015) 4K高清版本下载/14.50GB
下一篇:安东尼·福奇 / Fauci (2021) 4K高清版本下载/12.07GB
回复

使用道具 举报

48

主题

1542

帖子

4438

积分

4K家园VIP

Rank: 9Rank: 9Rank: 9

积分
4438
发表于 2021-10-5 21:13:39 | 显示全部楼层
路过的帮顶
回复 支持 反对

使用道具 举报

0

主题

20

帖子

497

积分

新手上路

Rank: 1

积分
497
发表于 2021-10-6 13:55:36 | 显示全部楼层
路过的帮顶
回复 支持 反对

使用道具 举报

0

主题

14

帖子

100

积分

新手上路

Rank: 1

积分
100
发表于 2021-10-6 15:08:17 | 显示全部楼层
非常不错的电影
回复 支持 反对

使用道具 举报

0

主题

6

帖子

19

积分

新手上路

Rank: 1

积分
19
发表于 2021-10-6 16:47:01 | 显示全部楼层
谢谢楼主分享!!!
回复 支持 反对

使用道具 举报

0

主题

2

帖子

9

积分

新手上路

Rank: 1

积分
9
发表于 2021-10-6 19:45:30 | 显示全部楼层
新人帮忙顶
回复 支持 反对

使用道具 举报

0

主题

1326

帖子

3776

积分

中级会员

Rank: 4

积分
3776
发表于 2021-10-7 10:02:11 | 显示全部楼层
楼下的接上
回复 支持 反对

使用道具 举报

1

主题

1289

帖子

3893

积分

4K家园VIP

Rank: 9Rank: 9Rank: 9

积分
3893
发表于 2021-10-8 15:06:57 | 显示全部楼层
鼎力支持!!
回复 支持 反对

使用道具 举报

39

主题

1388

帖子

3926

积分

4K家园VIP

Rank: 9Rank: 9Rank: 9

积分
3926
发表于 2021-10-9 02:38:52 | 显示全部楼层
好帖必须得顶起
回复 支持 反对

使用道具 举报

2

主题

1290

帖子

3724

积分

4K家园VIP

Rank: 9Rank: 9Rank: 9

积分
3724
发表于 2021-10-10 00:22:45 | 显示全部楼层
垃圾
回复 支持 反对

使用道具 举报

您需要登录后才可以回帖 登录 | 立即注册

本版积分规则

精彩图文
Archiver|手机版|TAG|Sitemap|新帖|专题|联系我们:邮箱: 4kjia.com@gmail.com   

4k家园   ©2019