亿万 / Billions Season 5 (2020) / 第五季全12集 / 4K高清下载

[复制链接]

28

主题

32

帖子

330

积分

版主

Rank: 7Rank: 7Rank: 7

积分
330
 楼主| 发表于 2021-10-6 14:37:34 | 显示全部楼层 |阅读模式
本帖最后由 美剧小虾 于 2021-10-6 16:30 编辑

p2595073646_副本.jpg

◎译  名 亿万 第五季/亿万风云(港)
◎片  名 Billions Season 5
◎年  代 2020
◎产  地 美国
◎类  别 剧情/犯罪
◎语  言 英语
◎上映日期 2020-05-03(美国)
◎IMDb评分  8.8/10 from 14 users
◎IMDb链接  https://www.imdb.com/title/tt10569630/
◎豆瓣评分 /10 from 0 users
◎豆瓣链接 https://douban.com/subject/33440173/
◎集  数 12
◎片  长 60分钟
◎导  演 约翰·达尔 John Dahl / 亚当·伯恩斯坦 Adam Bernstein / 马修·麦克鲁塔 Matthew McLoota / 劳瑞·科利尔 Laurie Collyer / 大卫·科斯塔贝尔 David Costabile / 李·塔玛霍瑞 Lee Tamahori
◎编  剧 布赖恩·科佩尔曼 Brian Koppelman / 大卫·莱维恩 David Levien / 安德鲁·罗斯·索尔金 Andrew Ross Sorkin
◎主  演 戴米恩·路易斯 Damian Lewis
       保罗·吉亚玛提 Paul Giamatti
       玛姬·丝弗 Maggie Siff
       朱丽安娜· 玛格丽丝 Julianna Margulies
       寇瑞·斯托尔 Corey Stoll
       大卫·科斯塔贝尔 David Costabile
       康多拉·拉沙德 Condola Rashad
       艾莎·凯特·狄龙 Asia Kate Dillon
       杰弗里·德曼 Jeffrey DeMunn
       凯利·奥科 Kelly AuCoin
       大卫·阿隆·贝克 David Aaron Baker
       丹·索德 Dan Soder
       艾哈德·伯里沙 Ehad Berisha
       安德鲁·波尔克 Andrew Polk
       绍尔·鲁宾内克 Saul Rubinek
       本·申克曼 Ben Shenkman
       亚历克莎·斯温顿 Alexa Swinton
       吉娜·威尔德 Zina Wilde
       基拉·维瑟 Kira Visser
       格伦·弗莱施勒 Glenn Fleshler
       史蒂芬·坤肯 Stephen Kunken
       特里·金尼 Terry Kinney
       Alba Albanese


◎简  介


  就在新敌崛起准备大动干戈之际,鲍比·艾克斯罗德和查克·罗兹又双叒叕相互看不顺眼了……  
  社会影响力先锋迈克·普林斯(Mike Prince)对艾克斯优势地位构成实质威胁,查克则与一名难对付的地方检察官结下梁子。泰勒·梅森被迫重回艾斧资本(Axe Capital),他们必须为自身雇员和资产而战。温迪·罗兹重审自我忠心所向,并建立令人惊讶的新联盟,致使其与查克和艾克斯两人关系各生变数。
General
Complete name                  : E:\Billions.S05E01.2160p.SHO.WEB-DL.DDP5.1.x265-NTb.mkv
Format                         : Matroska
Format version                 : Version 4
File size                      : 6.36 GiB
Duration                       : 59 min 7 s
Overall bit rate               : 15.4 Mb/s
Encoded date                   : UTC 2021-10-03 19:42:32
Writing application            : mkvmerge v58.0.0 ('Supper's Ready') 64-bit
Writing library                : libebml v1.4.2 + libmatroska v1.6.4
IsTruncated                    : Yes

Video
ID                             : 1
Format                         : HEVC
Format/Info                    : High Efficiency Video Coding
Format profile                 : Main@L5@Main
Codec ID                       : V_MPEGH/ISO/HEVC
Duration                       : 59 min 7 s
Bit rate                       : 14.5 Mb/s
Width                          : 3 840 pixels
Height                         : 2 160 pixels
Display aspect ratio           : 16:9
Frame rate mode                : Constant
Frame rate                     : 23.976 (24000/1001) FPS
Color space                    : YUV
Chroma subsampling             : 4:2:0
Bit depth                      : 8 bits
Bits/(Pixel*Frame)             : 0.073
Stream size                    : 5.97 GiB (94%)
Writing library                : x265 2.8hy:[Linux][GCC 7.5.0][64 bit] 8bit
Encoding settings              : cpuid=1111039 / frame-threads=1 / no-wpp / no-pmode / no-pme / no-psnr / no-ssim / log-level=2 / input-csp=1 / input-res=3840x2160 / interlace=0 / total-frames=0 / level-idc=0 / high-tier=1 / uhd-bd=0 / ref=4 / no-allow-non-conformance / repeat-headers / annexb / aud / hrd / info / hash=0 / no-temporal-layers / no-open-gop / min-keyint=48 / keyint=48 / gop-lookahead=0 / bframes=4 / b-adapt=2 / b-pyramid / bframe-bias=0 / rc-lookahead=48 / lookahead-slices=4 / scenecut=0 / radl=0 / no-intra-refresh / ctu=64 / min-cu-size=8 / rect / no-amp / max-tu-size=32 / tu-inter-depth=1 / tu-intra-depth=1 / limit-tu=0 / rdoq-level=2 / dynamic-rd=0.00 / no-ssim-rd / signhide / no-tskip / nr-intra=100 / nr-inter=200 / no-constrained-intra / strong-intra-smoothing / max-merge=3 / limit-refs=3 / limit-modes / me=3 / subme=3 / merange=57 / temporal-mvp / weightp / no-weightb / no-analyze-src-pics / deblock=0:0 / no-sao / no-sao-non-deblock / rd=4 / no-early-skip / no-rskip / no-fast-intra / no-tskip-fast / no-cu-lossless / no-b-intra / no-splitrd-skip / rdpenalty=0 / psy-rd=0.00 / psy-rdoq=10.00 / no-rd-refine / no-lossless / cbqpoffs=0 / crqpoffs=0 / rc=abr / bitrate=15000 / qcomp=0.60 / qpstep=1 / stats-write=0 / stats-read=2 / cplxblur=20.0 / qblur=0.5 / vbv-maxrate=18000 / vbv-bufsize=12000 / vbv-init=0.6 / vbv-end=0.6 / vbv-end-fr-adj=0.0 / ipratio=1.10 / pbratio=1.00 / aq-mode=0 / aq-strength=0.00 / no-cutree / zone-count=0 / no-strict-cbr / qg-size=32 / rc-grain / qpmax=69 / qpmin=0 / const-vbv / sar=0 / overscan=0 / videoformat=5 / range=0 / colorprim=1 / transfer=1 / colormatrix=1 / chromaloc=0 / display-window=0 / max-cll=0,0 / min-luma=0 / max-luma=255 / log2-max-poc-lsb=8 / vui-timing-info / vui-hrd-info / no-concatenation / slices=1 / no-opt-qp-pps / no-opt-ref-list-length-pps / no-multi-pass-opt-rps / scenecut-bias=0.05 / no-opt-cu-delta-qp / no-aq-motion / no-hdr / no-hdr-opt / no-dhdr10-opt / no-idr-recovery-sei / analysis-reuse-level=5 / scale-factor=0 / refine-intra=0 / refine-inter=0 / refine-mv=0 / no-limit-sao / ctu-info=0 / no-lowpass-dct / refine-mv-type=0 / copy-pic=1 / max-ausize-factor=1.0 / no-dynamic-refine / no-single-sei
Default                        : Yes
Forced                         : No
Color range                    : Limited
Color primaries                : BT.709
Transfer characteristics       : BT.709
Matrix coefficients            : BT.709

Audio
ID                             : 2
Format                         : E-AC-3
Format/Info                    : Enhanced AC-3
Commercial name                : Dolby Digital Plus
Codec ID                       : A_EAC3
Duration                       : 59 min 7 s
Bit rate mode                  : Constant
Bit rate                       : 640 kb/s
Channel(s)                     : 6 channels
Channel layout                 : L R C LFE Ls Rs
Sampling rate                  : 48.0 kHz
Frame rate                     : 31.250 FPS (1536 SPF)
Compression mode               : Lossy
Delay relative to video        : 18 ms
Stream size                    : 271 MiB (4%)
Language                       : English
Service kind                   : Complete Main
Default                        : Yes
Forced                         : No

Text #1
ID                             : 3
Format                         : UTF-8
Codec ID                       : S_TEXT/UTF8
Codec ID/Info                  : UTF-8 Plain Text
Language                       : English
Default                        : No
Forced                         : No

Text #2
ID                             : 4
Format                         : UTF-8
Codec ID                       : S_TEXT/UTF8
Codec ID/Info                  : UTF-8 Plain Text
Title                          : SDH
Language                       : English
Default                        : No
Forced                         : No

Menu
00:58:18.000                   : Credits

下载地址


游客,如果您要查看本帖隐藏内容请回复








上一篇:雷德利路 / Ridley Road (2021) / 第一季全4集 / 4K高清下载
下一篇:假如…?/ What If...? (2021) / 第一季全9集 / 4K高清下载
回复

使用道具 举报

56

主题

1494

帖子

4366

积分

4K家园VIP

Rank: 9Rank: 9Rank: 9

积分
4366
发表于 2021-10-6 14:37:46 来自手机 | 显示全部楼层
顶顶更健康
回复 支持 反对

使用道具 举报

0

主题

1

帖子

6

积分

新手上路

Rank: 1

积分
6
发表于 2021-10-6 17:59:58 | 显示全部楼层
不错的效果
回复 支持 反对

使用道具 举报

2

主题

1684

帖子

4588

积分

4K家园VIP

Rank: 9Rank: 9Rank: 9

积分
4588
发表于 2021-10-7 07:24:16 来自手机 | 显示全部楼层
感谢分享
回复 支持 反对

使用道具 举报

13

主题

1166

帖子

3470

积分

4K家园VIP

Rank: 9Rank: 9Rank: 9

积分
3470
发表于 2021-10-7 21:03:43 | 显示全部楼层
边撸边过
回复 支持 反对

使用道具 举报

54

主题

1428

帖子

4128

积分

4K家园VIP

Rank: 9Rank: 9Rank: 9

积分
4128
发表于 2021-10-8 19:17:15 | 显示全部楼层
回复 支持 反对

使用道具 举报

50

主题

1401

帖子

4013

积分

4K家园VIP

Rank: 9Rank: 9Rank: 9

积分
4013
发表于 2021-10-9 01:05:32 | 显示全部楼层
没人回帖。。。我来个吧
回复 支持 反对

使用道具 举报

0

主题

3

帖子

15

积分

新手上路

Rank: 1

积分
15
发表于 2021-10-10 13:39:53 | 显示全部楼层
thx~~~~~~~
回复

使用道具 举报

0

主题

8

帖子

74

积分

新手上路

Rank: 1

积分
74
发表于 5 天前 | 显示全部楼层
找了好久,终于有了,感谢楼主分享!
回复 支持 反对

使用道具 举报

0

主题

5940

帖子

1万

积分

4K家园VIP

Rank: 9Rank: 9Rank: 9

积分
14188
发表于 5 天前 | 显示全部楼层
太好啦&萬分感謝版主的無私發佈分享%
回复 支持 反对

使用道具 举报

您需要登录后才可以回帖 登录 | 立即注册

本版积分规则

精彩图文
Archiver|手机版|TAG|Sitemap|新帖|专题|联系我们:邮箱: 4kjia.com@gmail.com   

4k家园   ©2019