[4KMV] 2021 Hi-L - Too Too (22) [Bugs! 2160p] [2160P /MP4/1.81GB]

[复制链接]

2566

主题

2890

帖子

2万

积分

超级版主

Rank: 8Rank: 8

积分
24032
 楼主| 发表于 2021-10-10 09:58:19 | 显示全部楼层 |阅读模式
本帖最后由 叽里呱啦 于 2021-10-6 22:20 编辑

2021 Hi-L - Too Too (22) [Bugs! 2160p].mp4_20211006_215903.037.jpg 2021 Hi-L - Too Too (22) [Bugs! 2160p].mp4_20211006_215918.238.jpg 2021 Hi-L - Too Too (22) [Bugs! 2160p].mp4_20211006_215925.053.jpg 2021 Hi-L - Too Too (22) [Bugs! 2160p].mp4_20211006_215943.894.jpg 2021 Hi-L - Too Too (22) [Bugs! 2160p].mp4_20211006_220002.669.jpg 2021 Hi-L - Too Too (22) [Bugs! 2160p].mp4_20211006_220013.821.jpg

General
Complete name                  : E:\4K@MV\最新下载MV\2021 Hi-L - Too Too (22) [Bugs! 2160p].mp4
Format                         : MPEG-4
Format profile                 : Base Media / Version 2
Codec ID                       : mp42 (mp42/mp41)
File size                      : 1.82 GiB
Duration                       : 3 min 22 s
Overall bit rate mode          : Variable
Overall bit rate               : 77.0 Mb/s
Encoded date                   : UTC 2021-08-09 10:38:00
Tagged date                    : UTC 2021-08-09 10:41:42
TIM                            : 00:00:00:00
TSC                            : 24000
TSZ                            : 1001

Video
ID                             : 1
Format                         : AVC
Format/Info                    : Advanced Video Codec
Format profile                 : High@L5.2
Format settings                : CABAC / 4 Ref Frames
Format settings, CABAC         : Yes
Format settings, Reference fra : 4 frames
Codec ID                       : avc1
Codec ID/Info                  : Advanced Video Coding
Duration                       : 3 min 22 s
Bit rate                       : 76.7 Mb/s
Width                          : 3 840 pixels
Height                         : 2 160 pixels
Display aspect ratio           : 16:9
Frame rate mode                : Constant
Frame rate                     : 23.976 (24000/1001) FPS
Color space                    : YUV
Chroma subsampling             : 4:2:0
Bit depth                      : 8 bits
Scan type                      : Progressive
Bits/(Pixel*Frame)             : 0.386
Stream size                    : 1.81 GiB (100%)
Language                       : English
Encoded date                   : UTC 2021-08-09 10:38:02
Tagged date                    : UTC 2021-08-09 10:38:02
Color range                    : Limited
Color primaries                : BT.709
Transfer characteristics       : BT.709
Matrix coefficients            : BT.709
Codec configuration box        : avcC

Audio
ID                             : 2
Format                         : AAC LC
Format/Info                    : Advanced Audio Codec Low Complexity
Codec ID                       : mp4a-40-2
Duration                       : 3 min 22 s
Source duration                : 3 min 22 s
Bit rate mode                  : Variable
Bit rate                       : 317 kb/s
Maximum bit rate               : 439 kb/s
Channel(s)                     : 2 channels
Channel layout                 : L R
Sampling rate                  : 48.0 kHz
Frame rate                     : 46.875 FPS (1024 SPF)
Compression mode               : Lossy
Stream size                    : 7.66 MiB (0%)
Source stream size             : 7.66 MiB (0%)
Language                       : English
Encoded date                   : UTC 2021-08-09 10:38:00
Tagged date                    : UTC 2021-08-09 10:38:00

网盘下载失效不补:链接: https://pan.baidu.com/s/1fiLne9KbKhzw8IF4kmuUow 提取码:
****此区域为收费内容****    需支付 15 金币后可查看立即购买




上一篇:[4KMV] 2017 HyunA-嘴唇和臀部(收藏版) [2160P /MP4/1.28GB]
下一篇:[4KMV] 2021 ITZY Performance Practice : MTV Fresh Out Live [2160P /MP4/778MB]
回复

使用道具 举报

50

主题

1448

帖子

4206

积分

4K家园VIP

Rank: 9Rank: 9Rank: 9

积分
4206
发表于 2021-10-10 09:58:23 来自手机 | 显示全部楼层
我也来顶一下..
回复 支持 反对

使用道具 举报

41

主题

1479

帖子

4235

积分

4K家园VIP

Rank: 9Rank: 9Rank: 9

积分
4235
发表于 2021-10-10 13:27:50 来自手机 | 显示全部楼层
支持一下楼主发表的内容
回复 支持 反对

使用道具 举报

2

主题

1684

帖子

4588

积分

4K家园VIP

Rank: 9Rank: 9Rank: 9

积分
4588
发表于 2021-10-10 13:57:15 来自手机 | 显示全部楼层
呵呵。。。
回复 支持 反对

使用道具 举报

2

主题

1303

帖子

3916

积分

4K家园VIP

Rank: 9Rank: 9Rank: 9

积分
3916
发表于 2021-10-10 18:36:03 | 显示全部楼层
这个资源我记得是一套的,楼主还有没有
回复 支持 反对

使用道具 举报

3

主题

1560

帖子

4320

积分

4K家园VIP

Rank: 9Rank: 9Rank: 9

积分
4320
发表于 2021-10-11 00:43:45 | 显示全部楼层
鄙视楼下的顶帖没我快,哈哈
回复 支持 反对

使用道具 举报

您需要登录后才可以回帖 登录 | 立即注册

本版积分规则

精彩图文
Archiver|手机版|TAG|Sitemap|新帖|专题|联系我们:邮箱: 4kjia.com@gmail.com   

4k家园   ©2019