[4KMV] 2021 ITZY Performance Practice : MTV Fresh Out Live [2160P /MP4/778MB]

[复制链接]

2571

主题

2895

帖子

2万

积分

超级版主

Rank: 8Rank: 8

积分
24086
 楼主| 发表于 2021-10-13 10:23:58 | 显示全部楼层 |阅读模式
本帖最后由 叽里呱啦 于 2021-10-6 22:20 编辑

2021 ITZY Performance Practice : MTV Fresh Out Live 4k.mp4_20211006_221021.901.jpg 2021 ITZY Performance Practice : MTV Fresh Out Live 4k.mp4_20211006_221053.637.jpg 2021 ITZY Performance Practice : MTV Fresh Out Live 4k.mp4_20211006_221103.220.jpg 2021 ITZY Performance Practice : MTV Fresh Out Live 4k.mp4_20211006_221108.076.jpg 2021 ITZY Performance Practice : MTV Fresh Out Live 4k.mp4_20211006_221114.286.jpg 2021 ITZY Performance Practice : MTV Fresh Out Live 4k.mp4_20211006_221156.470.jpg

General
Complete name                  : E:\4K@电影\最新下载MV\2021 ITZY Performance Practice : MTV Fresh Out Live 4k.mp4
Format                         : MPEG-4
Format profile                 : Base Media
Codec ID                       : isom (isom/iso2/avc1/mp41)
File size                      : 778 MiB
Duration                       : 6 min 44 s
Overall bit rate               : 16.1 Mb/s
Writing application            : Lavf58.12.100
exvr                           : EX1.9.0.P18.B012|CU1.0.0.P18

Video
ID                             : 1
Format                         : AVC
Format/Info                    : Advanced Video Codec
Format profile                 : High@L5.1
Format settings                : CABAC / 4 Ref Frames
Format settings, CABAC         : Yes
Format settings, Reference fra : 4 frames
Codec ID                       : avc1
Codec ID/Info                  : Advanced Video Coding
Duration                       : 6 min 44 s
Bit rate                       : 15.9 Mb/s
Width                          : 3 840 pixels
Height                         : 2 160 pixels
Display aspect ratio           : 16:9
Frame rate mode                : Constant
Frame rate                     : 23.976 (23976/1000) FPS
Color space                    : YUV
Chroma subsampling             : 4:2:0
Bit depth                      : 8 bits
Scan type                      : Progressive
Bits/(Pixel*Frame)             : 0.080
Stream size                    : 769 MiB (99%)
Color range                    : Limited
Color primaries                : BT.709
Transfer characteristics       : BT.709
Matrix coefficients            : BT.709
Codec configuration box        : avcC

Audio
ID                             : 2
Format                         : AAC LC
Format/Info                    : Advanced Audio Codec Low Complexity
Codec ID                       : mp4a-40-2
Duration                       : 6 min 44 s
Bit rate mode                  : Constant
Bit rate                       : 192 kb/s
Channel(s)                     : 2 channels
Channel layout                 : L R
Sampling rate                  : 48.0 kHz
Frame rate                     : 46.875 FPS (1024 SPF)
Compression mode               : Lossy
Stream size                    : 9.26 MiB (1%)
Default                        : Yes
Alternate group                : 1

网盘下载失效不补:链接: https://pan.baidu.com/s/1Xy-DbMWiElOfZKrLfQxDWA 提取码:
****此区域为收费内容****    需支付 15 金币后可查看立即购买







上一篇:[4KMV] 2021 Hi-L - Too Too (22) [Bugs! 2160p] [2160P /MP4/1.81GB]
下一篇:[4KMV] 2021 KANGDANIEL - PARANOIA [Special Performance] 4k [2160P/MP4/374MB]
回复

使用道具 举报

2

主题

1323

帖子

3991

积分

4K家园VIP

Rank: 9Rank: 9Rank: 9

积分
3991
发表于 2021-10-13 10:24:11 | 显示全部楼层
为了三千积分!
回复 支持 反对

使用道具 举报

40

主题

1455

帖子

4127

积分

4K家园VIP

Rank: 9Rank: 9Rank: 9

积分
4127
发表于 2021-10-14 05:26:56 | 显示全部楼层
站位支持
回复 支持 反对

使用道具 举报

2

主题

1293

帖子

3733

积分

4K家园VIP

Rank: 9Rank: 9Rank: 9

积分
3733
发表于 2021-10-15 18:36:14 | 显示全部楼层
感谢楼主发帖,前排顶起
回复 支持 反对

使用道具 举报

2

主题

1360

帖子

4098

积分

4K家园VIP

Rank: 9Rank: 9Rank: 9

积分
4098
发表于 2021-10-16 03:24:24 | 显示全部楼层
4K家园资源最近貌似越来越多了
回复 支持 反对

使用道具 举报

3

主题

1275

帖子

3843

积分

4K家园VIP

Rank: 9Rank: 9Rank: 9

积分
3843
发表于 2021-10-16 10:12:58 | 显示全部楼层
楼猪辛苦了,支持一下分享好资源
回复 支持 反对

使用道具 举报

您需要登录后才可以回帖 登录 | 立即注册

本版积分规则

精彩图文
Archiver|手机版|TAG|Sitemap|新帖|专题|联系我们:邮箱: 4kjia.com@gmail.com   

4k家园   ©2019