[4KMV] 2021 KANGDANIEL - PARANOIA [Special Performance] 4k [2160P/MP4/374MB]

[复制链接]

2607

主题

2941

帖子

2万

积分

超级版主

Rank: 8Rank: 8

积分
24482
 楼主| 发表于 2021-10-27 17:10:31 | 显示全部楼层 |阅读模式
本帖最后由 叽里呱啦 于 2021-10-6 22:19 编辑

2021 KANGDANIEL - PARANOIA [Special Performance] 4k.mp4_20211006_221443.277.jpg 2021 KANGDANIEL - PARANOIA [Special Performance] 4k.mp4_20211006_221608.516.jpg 2021 KANGDANIEL - PARANOIA [Special Performance] 4k.mp4_20211006_221615.988.jpg 2021 KANGDANIEL - PARANOIA [Special Performance] 4k.mp4_20211006_221623.060.jpg 2021 KANGDANIEL - PARANOIA [Special Performance] 4k.mp4_20211006_221628.700.jpg 2021 KANGDANIEL - PARANOIA [Special Performance] 4k.mp4_20211006_221636.572.jpg
General
Complete name                  : E:\4K@MV\最新下载MV\2021 KANGDANIEL - PARANOIA [Special Performance] 4k.mp4
Format                         : MPEG-4
Format profile                 : Base Media
Codec ID                       : isom (isom/iso2/avc1/mp41)
File size                      : 374 MiB
Duration                       : 3 min 17 s
Overall bit rate               : 15.9 Mb/s
Writing application            : Lavf58.12.100
exvr                           : EX1.8.2(C1.0.9)

Video
ID                             : 1
Format                         : AVC
Format/Info                    : Advanced Video Codec
Format profile                 : High@L5.1
Format settings                : CABAC / 4 Ref Frames
Format settings, CABAC         : Yes
Format settings, Reference fra : 4 frames
Codec ID                       : avc1
Codec ID/Info                  : Advanced Video Coding
Duration                       : 3 min 17 s
Bit rate                       : 15.7 Mb/s
Width                          : 3 840 pixels
Height                         : 2 160 pixels
Display aspect ratio           : 16:9
Frame rate mode                : Constant
Frame rate                     : 23.976 (23976/1000) FPS
Color space                    : YUV
Chroma subsampling             : 4:2:0
Bit depth                      : 8 bits
Scan type                      : Progressive
Bits/(Pixel*Frame)             : 0.079
Stream size                    : 370 MiB (99%)
Codec configuration box        : avcC

Audio
ID                             : 2
Format                         : AAC LC
Format/Info                    : Advanced Audio Codec Low Complexity
Codec ID                       : mp4a-40-2
Duration                       : 3 min 17 s
Bit rate mode                  : Constant
Bit rate                       : 192 kb/s
Channel(s)                     : 2 channels
Channel layout                 : L R
Sampling rate                  : 48.0 kHz
Frame rate                     : 46.875 FPS (1024 SPF)
Compression mode               : Lossy
Stream size                    : 4.53 MiB (1%)
Default                        : Yes
Alternate group                : 1

网盘下载失效不补:链接: https://pan.baidu.com/s/1C7JO22Qj00EDaJey9JWE1w 提取码:
****此区域为收费内容****    需支付 15 金币后可查看立即购买







上一篇:[4KMV] 2021 ITZY Performance Practice : MTV Fresh Out Live [2160P /MP4/778MB]
下一篇:[4KMV] 2021 KANGDANIEL - PARANOIA 4k [2160P/MP4/259MB]
回复

使用道具 举报

0

主题

1313

帖子

3951

积分

4K家园VIP

Rank: 9Rank: 9Rank: 9

积分
3951
发表于 2021-10-27 17:10:39 | 显示全部楼层
介是神马?!!
回复 支持 反对

使用道具 举报

1

主题

1357

帖子

3915

积分

4K家园VIP

Rank: 9Rank: 9Rank: 9

积分
3915
发表于 2021-11-3 09:24:04 | 显示全部楼层
好像还可以
回复 支持 反对

使用道具 举报

3

主题

1568

帖子

4298

积分

4K家园VIP

Rank: 9Rank: 9Rank: 9

积分
4298
发表于 2021-11-7 03:34:33 | 显示全部楼层
这么强,支持楼主,佩服
回复 支持 反对

使用道具 举报

1

主题

1237

帖子

3729

积分

4K家园VIP

Rank: 9Rank: 9Rank: 9

积分
3729
发表于 2021-11-9 23:35:02 | 显示全部楼层
4K版的应该更清晰吧
回复 支持 反对

使用道具 举报

0

主题

18

帖子

66

积分

新手上路

Rank: 1

积分
66
发表于 2021-11-14 08:13:16 | 显示全部楼层
不错不错,支持,支持!!!
回复 支持 反对

使用道具 举报

1

主题

1303

帖子

3925

积分

4K家园VIP

Rank: 9Rank: 9Rank: 9

积分
3925
发表于 2021-11-17 08:23:08 | 显示全部楼层
支持一下楼主发表的内容
回复 支持 反对

使用道具 举报

您需要登录后才可以回帖 登录 | 立即注册

本版积分规则

精彩图文
Archiver|手机版|TAG|Sitemap|新帖|专题|联系我们:邮箱: 4kjia.com@gmail.com   

4k家园   ©2019