[4K电影] 安东尼·福奇 / Fauci (2021) 4K高清版本下载/12.07GB

[复制链接]

2571

主题

2895

帖子

2万

积分

超级版主

Rank: 8Rank: 8

积分
24086
 楼主| 发表于 2021-10-7 11:57:08 | 显示全部楼层 |阅读模式
本帖最后由 最爱4K哟 于 2021-10-14 22:27 编辑

QQ图片20211007120821_副本.png

◎译  名 安东尼·福奇
◎片  名 Fauci
◎年  代 2021
◎产  地 美国
◎类  别 纪录片 / 历史
◎语  言 英语
◎上映日期 2021-09-02(特柳赖德电影节) / 2021-10-06(美
◎IMDb评分  2.0/10 from 2200 users
◎IMDb链接  https://www.imdb.com/title/tt13984924/
◎IMDb评分  7.2/10 from 162253 users
◎IMDb链接  https://www.imdb.com/title/tt4425064/
◎豆瓣评分 0/10 from 0 users
◎豆瓣链接 https://movie.douban.com/subject/35351421/
◎片  长 104分钟
◎导  演 约翰·霍夫曼 / 珍妮特·托比亚斯
◎主  演 安东尼·福奇
                   博诺
                   比尔·盖茨
                   乔治·W· 布什
                   弗朗西斯·柯林斯
                   詹妮弗·福西
                   托马斯·弗里登
                   劳里·加勒特
                   克里斯汀·格雷迪
                   阿波娃·曼达维利
                   苏珊·赖斯


◎简  介



          国家地理打造的安东尼·福奇纪录片[福奇](Fauci,暂译)释出先导预告!该片由约翰·霍夫曼([合众为一])、珍妮特·托比亚斯([洞穴求生])共同执导。影片将追溯福奇的职业生涯,重点介绍他在艾滋病方面的工作,以及现在对抗新冠病毒的工作。该片采访对象包括小布什、比尔·盖茨等。
General
Unique ID                      : 147086191899789642883984130739184878913 (0x6EA7C527CD202C9753B2A929C9D44541)
Complete name                  : T:\Fauci.2021.HDR.2160p.WEB.h265-KOGi\Fauci.2021.HDR.2160p.WEB.h265-KOGi.mkv
Format                         : Matroska
Format version                 : Version 4
File size                      : 12.1 GiB
Duration                       : 1 h 44 min
Overall bit rate               : 16.5 Mb/s
Writing application            : mkvmerge v59.0.0 ('Shining Star') 64-bit
Writing library                : libebml v1.4.2 + libmatroska v1.6.4
IsTruncated                    : Yes

Video
ID                             : 1
Format                         : HEVC
Format/Info                    : High Efficiency Video Coding
Format profile                 : Main 10@L5@High
HDR format                     : SMPTE ST 2086, HDR10 compatible
Codec ID                       : V_MPEGH/ISO/HEVC
Duration                       : 1 h 44 min
Bit rate                       : 15.9 Mb/s
Width                          : 3 840 pixels
Height                         : 2 160 pixels
Display aspect ratio           : 16:9
Frame rate mode                : Constant
Frame rate                     : 23.976 (24000/1001) FPS
Color space                    : YUV
Chroma subsampling             : 4:2:0
Bit depth                      : 10 bits
Bits/(Pixel*Frame)             : 0.080
Stream size                    : 11.6 GiB (96%)
Language                       : English
Default                        : Yes
Forced                         : No
Color range                    : Limited
Color primaries                : BT.2020
Transfer characteristics       : PQ
Matrix coefficients            : BT.2020 non-constant
Mastering display color primar : Display P3
Mastering display luminance    : min: 0.0010 cd/m2, max: 1000 cd/m2

Audio
ID                             : 2
Format                         : E-AC-3
Format/Info                    : Enhanced AC-3
Commercial name                : Dolby Digital Plus
Codec ID                       : A_EAC3
Duration                       : 1 h 44 min
Bit rate mode                  : Constant
Bit rate                       : 256 kb/s
Channel(s)                     : 6 channels
Channel layout                 : L R C LFE Ls Rs
Sampling rate                  : 48.0 kHz
Frame rate                     : 31.250 FPS (1536 SPF)
Compression mode               : Lossy
Stream size                    : 192 MiB (2%)
Language                       : English
Service kind                   : Complete Main
Default                        : Yes
Forced                         : No

Text
ID                             : 3
Format                         : UTF-8
Codec ID                       : S_TEXT/UTF8
Codec ID/Info                  : UTF-8 Plain Text
Title                          : English (SDH)
Language                       : English
Default                        : No
Forced                         : No

迅雷下载资源速度为零,资源敏感或被和谐时,推荐使用qBittorrent等无限速下载软件,有条件的推荐115更好的下载软件!

下载地址  

游客,如果您要查看本帖隐藏内容请回复

游客,如果您要查看本帖隐藏内容请回复

游客,如果您要查看本帖隐藏内容请回复

游客,如果您要查看本帖隐藏内容请回复

游客,如果您要查看本帖隐藏内容请回复







上一篇:史蒂夫·乔布斯 / Steve Jobs (2015) 4K高清版本下载/16.18GB
下一篇:蓝色海湾 / Blue Bayou (2021) 4K高清版本下载/16.18GB
回复

使用道具 举报

3

主题

1721

帖子

4711

积分

中级会员

Rank: 4

积分
4711
发表于 2021-10-7 11:57:16 来自手机 | 显示全部楼层
为保住菊花,这个一定得回复!
回复 支持 反对

使用道具 举报

0

主题

1307

帖子

3935

积分

4K家园VIP

Rank: 9Rank: 9Rank: 9

积分
3935
发表于 2021-10-10 08:06:48 | 显示全部楼层
回复 支持 反对

使用道具 举报

1

主题

1257

帖子

3785

积分

4K家园VIP

Rank: 9Rank: 9Rank: 9

积分
3785
发表于 2021-10-11 06:10:07 | 显示全部楼层
支持一下楼主,顶起来
回复 支持 反对

使用道具 举报

0

主题

1

帖子

6

积分

新手上路

Rank: 1

积分
6
发表于 2021-10-11 07:58:51 | 显示全部楼层

cumming on tits

cumming on tits
回复 支持 反对

使用道具 举报

0

主题

56

帖子

113

积分

新手上路

Rank: 1

积分
113
发表于 2021-10-11 08:45:01 | 显示全部楼层

Where is Administration 4kjia.com?

Where is admin?
It is about advertisement on your website.
Regards.
回复 支持 反对

使用道具 举报

58

主题

1510

帖子

4340

积分

4K家园VIP

Rank: 9Rank: 9Rank: 9

积分
4340
发表于 2021-10-12 02:37:21 | 显示全部楼层
围观 围观 沙发在哪里!!!
回复 支持 反对

使用道具 举报

52

主题

1483

帖子

4287

积分

4K家园VIP

Rank: 9Rank: 9Rank: 9

积分
4287
发表于 2021-10-12 20:33:14 | 显示全部楼层
专业抢沙发的!哈哈
回复 支持 反对

使用道具 举报

您需要登录后才可以回帖 登录 | 立即注册

本版积分规则

精彩图文
Archiver|手机版|TAG|Sitemap|新帖|专题|联系我们:邮箱: 4kjia.com@gmail.com   

4k家园   ©2019