假如…?/ What If...? (2021) / 第一季全9集 / 4K高清下载

[复制链接]

28

主题

32

帖子

330

积分

版主

Rank: 7Rank: 7Rank: 7

积分
330
 楼主| 发表于 2021-10-7 12:56:57 | 显示全部楼层 |阅读模式
本帖最后由 美剧小虾 于 2021-10-10 15:21 编辑

p2669066997_副本.png

◎译  名 假如…? 第一季/如果…?/无限可能:假如..?/Marvel's What If...?/What if
◎片  名 What If...? Season 1
◎年  代 2021
◎产  地 美国
◎类  别 动作/动画/奇幻/冒险
◎语  言 英语
◎上映日期 2021-08-11(美国)
◎IMDb评分  7.6/10 from 40391 users
◎IMDb链接  https://www.imdb.com/title/tt10168312/
◎豆瓣评分 8.1/10 from 1336 users
◎豆瓣链接 https://douban.com/subject/33408073/
◎集  数 9
◎片  长 32分钟
◎导  演 Bryan Andrews Bryan Andrews
◎编  剧 A. C.布拉德利 A.C. Bradley
◎主  演 杰弗里·怀特 Jeffrey Wright
       海莉·阿特维尔 Hayley Atwell
       乔什·布洛林 Josh Brolin
       多米尼克·库珀 Dominic Cooper
       大卫·达斯马齐连 David Dastmalchian
       迈克尔·道格拉斯 Michael Douglas
       凯伦·吉兰 Karen Gillan
       杰夫·高布伦 Jeff Goldblum
       弗兰克·格里罗 Frank Grillo
       肖恩·古恩 Sean Gunn

       克里斯·海姆斯沃斯 Chris Hemsworth
       汤姆·希德勒斯顿 Tom Hiddleston
       杰曼·翰苏 Djimon Hounsou
       塞缪尔·杰克逊 Samuel L. Jackson
       托比·琼斯 Toby Jones
       迈克尔·B·乔丹 Michael B. Jordan
       尼尔·麦克唐纳 Neal McDonough
       娜塔莉·波特曼 Natalie Portman
       杰瑞米·雷纳 Jeremy Renner
       迈克尔·鲁克 Michael Rooker
       保罗·路德 Paul Rudd
       马克·鲁弗洛 Mark Ruffalo
       塞巴斯蒂安·斯坦 Sebastian Stan
       克里斯·沙利文 Chris Sullivan
       斯坦利·图齐 Stanley Tucci
       塔伊加·维迪提 Taika Waititi
       查德维克·博斯曼 Chadwick Boseman


◎简  介


  根据漫威漫画《What If》改编动画影集,每集扭转漫威电影宇宙的关键时刻,探讨如果Steve Rogers没有接受实验,而是卡特探员成为超级战士?抑或如果蜘蛛人加入惊奇四超人?等故事,引领观众进入未知领域。

General
Complete name                  : E:What.If.2021.S01.2160p.WEB-DL.x265.10bit.HDR.DDP5.1.Atmos-FLUX[rartv]\What.If.2021.S01E01.What.If.Captain.Carter.Were.the.First.Avenger.2160p.WEB-DL.DDP5.1.Atmos.HDR.H.265-FLUX.mkv
Format                         : Matroska
Format version                 : Version 4
File size                      : 4.82 GiB
Duration                       : 31 min 15 s
Overall bit rate               : 22.1 Mb/s
Encoded date                   : UTC 2021-08-11 07:21:26
Writing application            : mkvmerge v58.0.0 ('Supper's Ready') 64-bit
Writing library                : libebml v1.4.2 + libmatroska v1.6.4

Video
ID                             : 1
Format                         : HEVC
Format/Info                    : High Efficiency Video Coding
Format profile                 : Main 10@L5@Main
Codec ID                       : V_MPEGH/ISO/HEVC
Duration                       : 31 min 15 s
Bit rate                       : 20.9 Mb/s
Width                          : 3 840 pixels
Height                         : 2 160 pixels
Display aspect ratio           : 16:9
Frame rate mode                : Constant
Frame rate                     : 24.000 FPS
Color space                    : YUV
Chroma subsampling             : 4:2:0
Bit depth                      : 10 bits
Bits/(Pixel*Frame)             : 0.105
Stream size                    : 4.56 GiB (95%)
Writing library                : x265 3.5:[Linux][GCC 7.5.0][64 bit] 10bit
Encoding settings              : cpuid=1111039 / frame-threads=1 / wpp / no-pmode / no-pme / no-psnr / no-ssim / log-level=2 / input-csp=1 / input-res=3840x2160 / interlace=0 / total-frames=0 / level-idc=50 / high-tier=0 / uhd-bd=0 / ref=3 / no-allow-non-conformance / repeat-headers / annexb / no-aud / no-hrd / info / hash=0 / no-temporal-layers / no-open-gop / min-keyint=48 / keyint=48 / gop-lookahead=0 / bframes=2 / b-adapt=0 / b-pyramid / bframe-bias=0 / rc-lookahead=48 / lookahead-slices=8 / scenecut=0 / hist-scenecut=0 / radl=0 / no-splice / no-intra-refresh / ctu=32 / min-cu-size=8 / no-rect / no-amp / max-tu-size=16 / tu-inter-depth=2 / tu-intra-depth=2 / limit-tu=0 / rdoq-level=1 / dynamic-rd=0.00 / no-ssim-rd / signhide / no-tskip / nr-intra=0 / nr-inter=0 / no-constrained-intra / no-strong-intra-smoothing / max-merge=3 / limit-refs=1 / no-limit-modes / me=1 / subme=2 / merange=44 / temporal-mvp / no-frame-dup / no-hme / weightp / no-weightb / no-analyze-src-pics / deblock=0:0 / no-sao / no-sao-non-deblock / rd=4 / selective-sao=0 / early-skip / rskip / no-fast-intra / no-tskip-fast / no-cu-lossless / b-intra / no-splitrd-skip / rdpenalty=1 / psy-rd=1.60 / psy-rdoq=5.00 / no-rd-refine / no-lossless / cbqpoffs=0 / crqpoffs=0 / rc=abr / bitrate=23000 / qcomp=0.75 / qpstep=4 / stats-write=0 / stats-read=0 / vbv-maxrate=25000 / vbv-bufsize=25000 / vbv-init=0.9 / ipratio=1.40 / pbratio=1.30 / aq-mode=3 / aq-strength=1.00 / no-cutree / zone-count=0 / no-strict-cbr / qg-size=32 / no-rc-grain / qpmax=69 / qpmin=0 / no-const-vbv / sar=1 / overscan=0 / videoformat=5 / range=0 / colorprim=9 / transfer=16 / colormatrix=9 / chromaloc=0 / display-window=0 / cll=0,0 / min-luma=0 / max-luma=1023 / log2-max-poc-lsb=8 / vui-timing-info / vui-hrd-info / slices=1 / no-opt-qp-pps / no-opt-ref-list-length-pps / no-multi-pass-opt-rps / scenecut-bias=0.00 / hist-threshold=0.01 / no-opt-cu-delta-qp / no-aq-motion / no-hdr10 / hdr10-opt / no-dhdr10-opt / no-idr-recovery-sei / analysis-reuse-level=0 / analysis-save-reuse-level=0 / analysis-load-reuse-level=0 / scale-factor=0 / refine-intra=0 / refine-inter=0 / refine-mv=1 / refine-ctu-distortion=0 / no-limit-sao / ctu-info=0 / no-lowpass-dct / refine-analysis-type=0 / copy-pic=1 / max-ausize-factor=1.0 / no-dynamic-refine / no-single-sei / no-hevc-aq / no-svt / no-field / qp-adaptation-range=1.00 / no-scenecut-aware-qpconformance-window-offsets / right=0 / bottom=0
Default                        : Yes
Forced                         : No
Color range                    : Limited
Color primaries                : BT.2020
Transfer characteristics       : PQ
Matrix coefficients            : BT.2020 non-constant

Audio
ID                             : 2
Format                         : E-AC-3 JOC
Format/Info                    : Enhanced AC-3 with Joint Object Coding
Commercial name                : Dolby Digital Plus with Dolby Atmos
Codec ID                       : A_EAC3
Duration                       : 31 min 15 s
Bit rate mode                  : Constant
Bit rate                       : 768 kb/s
Channel(s)                     : 6 channels
Channel layout                 : L R C LFE Ls Rs
Sampling rate                  : 48.0 kHz
Frame rate                     : 31.250 FPS (1536 SPF)
Compression mode               : Lossy
Stream size                    : 172 MiB (3%)
Language                       : English
Service kind                   : Complete Main
Default                        : Yes
Forced                         : No
Complexity index               : 16
Number of dynamic objects      : 15
Bed channel count              : 1 channel
Bed channel configuration      : LFE

Text #1
ID                             : 3
Format                         : UTF-8
Codec ID                       : S_TEXT/UTF8
Codec ID/Info                  : UTF-8 Plain Text
Language                       : English
Default                        : No
Forced                         : No

Text #2
ID                             : 4
Format                         : UTF-8
Codec ID                       : S_TEXT/UTF8
Codec ID/Info                  : UTF-8 Plain Text
Title                          : SDH
Language                       : English
Default                        : No
Forced                         : No

Text #3
ID                             : 5
Format                         : UTF-8
Codec ID                       : S_TEXT/UTF8
Codec ID/Info                  : UTF-8 Plain Text
Language                       : Danish
Default                        : No
Forced                         : No

Text #4
ID                             : 6
Format                         : UTF-8
Codec ID                       : S_TEXT/UTF8
Codec ID/Info                  : UTF-8 Plain Text
Language                       : German
Default                        : No
Forced                         : No

Text #5
ID                             : 7
Format                         : UTF-8
Codec ID                       : S_TEXT/UTF8
Codec ID/Info                  : UTF-8 Plain Text
Title                          : Español
Language                       : Spanish
Default                        : No
Forced                         : No

Text #6
ID                             : 8
Format                         : UTF-8
Codec ID                       : S_TEXT/UTF8
Codec ID/Info                  : UTF-8 Plain Text
Title                          : Español (Latinoamericano)
Language                       : Spanish
Default                        : No
Forced                         : No

Text #7
ID                             : 9
Format                         : UTF-8
Codec ID                       : S_TEXT/UTF8
Codec ID/Info                  : UTF-8 Plain Text
Title                          : Français
Language                       : French
Default                        : No
Forced                         : No

Text #8
ID                             : 10
Format                         : UTF-8
Codec ID                       : S_TEXT/UTF8
Codec ID/Info                  : UTF-8 Plain Text
Title                          : Français (Canadien)
Language                       : French
Default                        : No
Forced                         : No

Text #9
ID                             : 11
Format                         : UTF-8
Codec ID                       : S_TEXT/UTF8
Codec ID/Info                  : UTF-8 Plain Text
Language                       : Italian
Default                        : No
Forced                         : No

Text #10
ID                             : 12
Format                         : UTF-8
Codec ID                       : S_TEXT/UTF8
Codec ID/Info                  : UTF-8 Plain Text
Language                       : Japanese
Default                        : No
Forced                         : No

Text #11
ID                             : 13
Format                         : UTF-8
Codec ID                       : S_TEXT/UTF8
Codec ID/Info                  : UTF-8 Plain Text
Language                       : Dutch
Default                        : No
Forced                         : No

Text #12
ID                             : 14
Format                         : UTF-8
Codec ID                       : S_TEXT/UTF8
Codec ID/Info                  : UTF-8 Plain Text
Language                       : Norwegian
Default                        : No
Forced                         : No

Text #13
ID                             : 15
Format                         : UTF-8
Codec ID                       : S_TEXT/UTF8
Codec ID/Info                  : UTF-8 Plain Text
Language                       : Polish
Default                        : No
Forced                         : No

Text #14
ID                             : 16
Format                         : UTF-8
Codec ID                       : S_TEXT/UTF8
Codec ID/Info                  : UTF-8 Plain Text
Title                          : Português
Language                       : Portuguese
Default                        : No
Forced                         : No

Text #15
ID                             : 17
Format                         : UTF-8
Codec ID                       : S_TEXT/UTF8
Codec ID/Info                  : UTF-8 Plain Text
Title                          : Português (Brasil)
Language                       : Portuguese
Default                        : No
Forced                         : No

Text #16
ID                             : 18
Format                         : UTF-8
Codec ID                       : S_TEXT/UTF8
Codec ID/Info                  : UTF-8 Plain Text
Language                       : Finnish
Default                        : No
Forced                         : No

Text #17
ID                             : 19
Format                         : UTF-8
Codec ID                       : S_TEXT/UTF8
Codec ID/Info                  : UTF-8 Plain Text
Language                       : Swedish
Default                        : No
Forced                         : No

Menu
00:29:58.833                   : Credits

下载地址

游客,如果您要查看本帖隐藏内容请回复

游客,如果您要查看本帖隐藏内容请回复

游客,如果您要查看本帖隐藏内容请回复

游客,如果您要查看本帖隐藏内容请回复


外挂中文字幕文件: 已校轴双语字幕 假如…?What.If.2021.S01.2160p.WEB-DL.DDP5.1.Atmos.H.265-FLUX.zi.zip (221.52 KB)

上一篇:亿万 / Billions Season 5 (2020) / 第五季全12集 / 4K高清下载
下一篇:守夜号/不眠 / Vigil (2021) / 第一季全6集 / 4K高清下载
回复

使用道具 举报

2

主题

1359

帖子

4095

积分

4K家园VIP

Rank: 9Rank: 9Rank: 9

积分
4095
发表于 2021-10-7 12:58:10 来自手机 | 显示全部楼层
一直在看
回复 支持 反对

使用道具 举报

0

主题

6

帖子

24

积分

新手上路

Rank: 1

积分
24
发表于 2021-10-7 13:22:05 | 显示全部楼层
不错很喜欢,楼主辛苦。
回复 支持 反对

使用道具 举报

0

主题

24

帖子

2484

积分

注册会员

Rank: 2

积分
2484
发表于 2021-10-7 16:24:50 | 显示全部楼层
感谢分享,顶一个,支持下,辛苦。
回复 支持 反对

使用道具 举报

0

主题

4

帖子

54

积分

新手上路

Rank: 1

积分
54
发表于 2021-10-7 20:14:11 | 显示全部楼层
感谢分享 看看呢
回复 支持 反对

使用道具 举报

0

主题

78

帖子

1617

积分

4K家园VIP

Rank: 9Rank: 9Rank: 9

积分
1617
发表于 2021-10-7 22:36:22 | 显示全部楼层
感谢楼主的分享
回复 支持 反对

使用道具 举报

0

主题

2

帖子

26

积分

新手上路

Rank: 1

积分
26
发表于 2021-10-8 12:43:37 | 显示全部楼层
hjf
回复

使用道具 举报

0

主题

7

帖子

40

积分

新手上路

Rank: 1

积分
40
发表于 2021-10-8 15:28:46 | 显示全部楼层
1435
回复

使用道具 举报

0

主题

14

帖子

81

积分

新手上路

Rank: 1

积分
81
发表于 2021-10-8 18:24:22 | 显示全部楼层
非常期待结局
回复 支持 反对

使用道具 举报

0

主题

2

帖子

9

积分

新手上路

Rank: 1

积分
9
发表于 2021-10-9 08:23:13 | 显示全部楼层
期待超久了
回复 支持 反对

使用道具 举报

您需要登录后才可以回帖 登录 | 立即注册

本版积分规则

精彩图文
Archiver|手机版|TAG|Sitemap|新帖|专题|联系我们:邮箱: 4kjia.com@gmail.com   

4k家园   ©2019