[4K电影] 蓝色海湾 / Blue Bayou (2021) 4K高清版本下载/16.18GB

[复制链接]

948

主题

1009

帖子

8533

积分

超级版主

Rank: 8Rank: 8

积分
8533
 楼主| 发表于 2021-10-7 16:39:52 | 显示全部楼层 |阅读模式
QQ图片20211007162846_副本.png

◎译  名 史蒂夫·乔布斯:机器人生
◎片  名 Steve Jobs: Man in the Machine
◎年  代 2015
◎产  地 美国
◎类  别 纪录片
◎语  言 英语
◎上映日期 2015-09-04(美国)
◎IMDb评分  7.4/10 from 893 users
◎IMDb链接  https://www.imdb.com/title/tt11121664/
◎豆瓣评分 7.8/10 from 156 users
◎豆瓣链接 https://movie.douban.com/subject/34856590/
◎片  长 117分钟 / 119分钟(戛纳电影节)
◎导  演 全知泰
◎编  剧 全知泰
◎主  演 全知泰
                   艾丽西亚·维坎德
                   马克·奥布莱恩
                   范林丹
                   辛迪妮·科瓦尔斯基
                   沃迪·科蒂斯·霍尔
                   艾莫里·科恩
                   杰拉尔丁·辛格
                   托比·维特拉诺
                   雷内尔·吉布斯
                   马丁·巴特斯·布拉德福德
                   吉姆·格里森
                   西尔维娅·格雷丝·克里姆
                   戈登·德克海默
                   内德·尤瑟夫




◎简  介

       故事讲述了一个典型美国家庭为未来奋斗的感人而普通的故事。
  韩裔美国人Antonio LeBlanc(全知泰 Justin Chon 饰演)幼年时被收养,并在路易斯安那州某个河口小镇长大成人。如今,他与心爱的Katy(艾丽西亚·维坎德 Alicia Vikander 饰演)成家,共同抚养她与前夫生下的 女儿Jessie。当他努力为家人提供最好的生活时,却得知将被这个自己称之为“家”的国家驱逐。挥之不去的过去将他紧紧束缚。

General
Complete name                  : E:\Blue.Bayou.2021.2160p.WEB-DL.x265.10bit.SDR.DDP5.1-NOGRP.mkv
Format                         : Matroska
Format version                 : Version 4
File size                      : 17.4 GiB
Duration                       : 1 h 57 min
Overall bit rate               : 21.2 Mb/s
Encoded date                   : UTC 2021-10-07 05:52:01
Writing application            : mkvmerge v61.0.0.25 ('So') 64-bit
Writing library                : libebml v1.4.2 + libmatroska v1.6.4
IsTruncated                    : Yes

Video
ID                             : 1
Format                         : HEVC
Format/Info                    : High Efficiency Video Coding
Format profile                 : Main 10@L5@High
Codec ID                       : V_MPEGH/ISO/HEVC
Duration                       : 1 h 57 min
Bit rate                       : 20.2 Mb/s
Width                          : 3 416 pixels
Height                         : 2 070 pixels
Display aspect ratio           : 5:3
Frame rate mode                : Constant
Frame rate                     : 23.976 (24000/1001) FPS
Color space                    : YUV
Chroma subsampling             : 4:2:0
Bit depth                      : 10 bits
Bits/(Pixel*Frame)             : 0.119
Stream size                    : 16.6 GiB (95%)
Default                        : Yes
Forced                         : No
Color range                    : Limited
Color primaries                : BT.709
Transfer characteristics       : BT.709
Matrix coefficients            : BT.709

Audio
ID                             : 2
Format                         : E-AC-3
Format/Info                    : Enhanced AC-3
Commercial name                : Dolby Digital Plus
Codec ID                       : A_EAC3
Duration                       : 1 h 57 min
Bit rate mode                  : Constant
Bit rate                       : 640 kb/s
Channel(s)                     : 6 channels
Channel layout                 : L R C LFE Ls Rs
Sampling rate                  : 48.0 kHz
Frame rate                     : 31.250 FPS (1536 SPF)
Compression mode               : Lossy
Stream size                    : 538 MiB (3%)
Language                       : English
Service kind                   : Complete Main
Default                        : Yes
Forced                         : No

Text
ID                             : 3
Format                         : UTF-8
Codec ID                       : S_TEXT/UTF8
Codec ID/Info                  : UTF-8 Plain Text
Language                       : English
Default                        : Yes
Forced                         : No
迅雷下载资源速度为零,资源敏感或被和谐时,推荐使用qBittorrent等无限速下载软件,有条件的推荐115更好的下载软件!

游客,如果您要查看本帖隐藏内容请回复

游客,如果您要查看本帖隐藏内容请回复






上一篇:安东尼·福奇 / Fauci (2021) 4K高清版本下载/12.07GB
下一篇:人母诅咒(内嵌简繁中字) / Madres (2021) 4K高清版本下载/8.93GB
回复

使用道具 举报

3

主题

1252

帖子

3778

积分

4K家园VIP

Rank: 9Rank: 9Rank: 9

积分
3778
发表于 2021-10-7 16:39:57 来自手机 | 显示全部楼层
very good
回复 支持 反对

使用道具 举报

1

主题

1486

帖子

4306

积分

4K家园VIP

Rank: 9Rank: 9Rank: 9

积分
4306
发表于 2021-10-7 20:39:57 | 显示全部楼层
为保住菊花,这个一定得回复!
回复 支持 反对

使用道具 举报

1

主题

1186

帖子

3576

积分

4K家园VIP

Rank: 9Rank: 9Rank: 9

积分
3576
发表于 2021-10-8 01:58:25 | 显示全部楼层
都不知道说的啥
回复 支持 反对

使用道具 举报

1

主题

1319

帖子

3811

积分

4K家园VIP

Rank: 9Rank: 9Rank: 9

积分
3811
发表于 2021-10-8 03:36:13 | 显示全部楼层
呵呵。。。
回复 支持 反对

使用道具 举报

0

主题

3

帖子

19

积分

新手上路

Rank: 1

积分
19
发表于 2021-10-8 10:42:30 | 显示全部楼层
谢谢分享!
回复

使用道具 举报

0

主题

2

帖子

9

积分

新手上路

Rank: 1

积分
9
发表于 2021-10-8 10:53:03 来自手机 | 显示全部楼层
good dream
回复

使用道具 举报

1

主题

1569

帖子

4297

积分

4K家园VIP

Rank: 9Rank: 9Rank: 9

积分
4297
发表于 2021-10-8 11:02:05 来自手机 | 显示全部楼层
正需要
回复 支持 反对

使用道具 举报

0

主题

2

帖子

9

积分

新手上路

Rank: 1

积分
9
发表于 2021-10-8 15:09:17 | 显示全部楼层
ganxie fenx
回复 支持 反对

使用道具 举报

0

主题

5

帖子

22

积分

新手上路

Rank: 1

积分
22
发表于 2021-10-8 21:56:39 | 显示全部楼层
非常好看的电影
回复 支持 反对

使用道具 举报

您需要登录后才可以回帖 登录 | 立即注册

本版积分规则

精彩图文
Archiver|手机版|TAG|Sitemap|新帖|专题|联系我们:邮箱: 4kjia.com@gmail.com   

4k家园   ©2019