[4K电影] 死亡来临 / South of Heaven (2021) 4K高清版本下载/10.40GB

[复制链接]

948

主题

1009

帖子

8533

积分

超级版主

Rank: 8Rank: 8

积分
8533
 楼主| 发表于 2021-10-8 13:19:41 | 显示全部楼层 |阅读模式
本帖最后由 最爱4K哟 于 2021-10-9 16:51 编辑

QQ图片20211008130521_副本.png

◎译  名 死亡来临前 / 死亡来临前 / 至死
◎片  名 South of Heaven
◎年  代 2021
◎产  地 美国
◎类  别 动作 / 惊悚
◎语  言 英语
◎上映日期 2021-10-08(美国网络)
◎IMDb评分  0/10 from 0 users
◎IMDb链接  https://www.imdb.com/title/tt11284502/
◎豆瓣评分 0/10 from 0 users
◎豆瓣链接 https://movie.douban.com/subject/34883496/
◎片  长 120
◎导  演 亚伦·凯莎莱斯
◎编  剧 亚伦·凯莎莱斯 / 纳沃特·帕普莎多 / Kai Mark
◎主  演 杰森·苏戴奇斯
                   伊万杰琳·莉莉                 
                   希·惠格姆
                   迈克·科尔特
                   迈克尔·帕尔
                   阿毛里·诺拉斯科
                   杰里米·博布
                   蒂娜·帕克
                   本·希克斯,
                   朱利叶斯·格雷戈里
                   海梅Zevallos
                   格雷格·希尔
                   克里斯蒂娜·冈萨雷斯
                   斯泰西谢菲尔德
                   赛迪斯- J. Mixson
                   鲁本·加里马丁内斯
                   马克·埃尔南德斯
                   弗雷迪·沃夫
                   克里斯蒂安·斯托克斯
                   汉娜·格伦

◎简  介


       杰森·苏戴奇斯、伊万杰琳·莉莉将主演动作惊悚片[死亡来临](Till Death),亚伦·凯莎莱斯([大坏狼])执导,亚伦与纳沃特·帕普莎多、Kai Mark共同操刀剧本。影片故事讲述因持枪抢劫而被判重罪的吉米在服刑12年后,获得假释。而此时,他的童年旧爱安妮身患癌症,即将离世。获释后的他发誓要给安妮最好的临终时刻。不幸的是,一切都没那么简单。影片将于2020年1月开拍。
Video
ID : 1
Format : HEVC
Format/Info : High Efficiency Video Coding
Format profile : Main 10@L5@High
Codec ID : V_MPEGH/ISO/HEVC
Duration : 1 h 59 min
Bit rate : 12.0 Mb/s
Width : 3 832 pixels
Height : 1 628 pixels
Display aspect ratio : 2.35:1
Frame rate mode : Constant
Frame rate : 23.976 FPS
Color space : YUV
Chroma subsampling : 4:2:0
Bit depth : 10 bits
Bits/(Pixel*Frame) : 0.080
Stream size : 10.1 GiB (97%)
Default : Yes
Forced : No
Color range : Limited
Color primaries : BT.709
Transfer characteristics : BT.709
Matrix coefficients : BT.709

Audio
ID : 2
Format : AC-3
Format/Info : Audio Coding 3
Commercial name : Dolby Digital
Codec ID : A_AC3
Duration : 1 h 59 min
Bit rate mode : Constant
Bit rate : 384 kb/s
Channel(s) : 6 channels
Channel layout : L R C LFE Ls Rs
Sampling rate : 48.0 kHz
Frame rate : 31.250 FPS (1536 SPF)
Compression mode : Lossy
Stream size : 329 MiB (3%)
Title : English
Language : English
Service kind : Complete Main
Default : No
Forced : No

Text #1
ID : 3
Format : UTF-8
Codec ID : S_TEXT/UTF8
Codec ID/Info : UTF-8 Plain Text
Duration : 1 h 55 min
Bit rate : 48 b/s
Count of elements : 1461
Stream size : 40.9 KiB (0%)
Language : English
Default : Yes
Forced : No

Text #2
ID : 4
Format : UTF-8
Codec ID : S_TEXT/UTF8
Codec ID/Info : UTF-8 Plain Text
Duration : 1 h 58 min
Bit rate : 46 b/s
Count of elements : 1332
Stream size : 39.9 KiB (0%)
Title : Spanish
Language : Spanish
Default : No
Forced : No

迅雷下载资源速度为零,资源敏感或被和谐时,推荐使用qBittorrent等无限速下载软件,有条件的推荐115更好的下载软件!

下载地址

游客,如果您要查看本帖隐藏内容请回复






上一篇:养老庄园(内嵌简繁中字) /The Manor (2021) 4本下载/8.75GBK高清版
下一篇:老亨利 / Old Henry (2021) 4K高清版本下载/16.98GB
回复

使用道具 举报

0

主题

1247

帖子

3757

积分

4K家园VIP

Rank: 9Rank: 9Rank: 9

积分
3757
发表于 2021-10-8 13:19:45 | 显示全部楼层
打酱油的人拉,回复下赚取积分
回复 支持 反对

使用道具 举报

0

主题

23

帖子

130

积分

新手上路

Rank: 1

积分
130
发表于 2021-10-8 13:43:57 | 显示全部楼层
好电影,感谢楼主
回复 支持 反对

使用道具 举报

0

主题

20

帖子

393

积分

新手上路

Rank: 1

积分
393
发表于 2021-10-8 14:56:45 | 显示全部楼层
谢谢谢谢谢谢谢谢
回复 支持 反对

使用道具 举报

0

主题

4

帖子

19

积分

新手上路

Rank: 1

积分
19
发表于 2021-10-8 23:23:50 | 显示全部楼层
好电影,感谢楼主
回复 支持 反对

使用道具 举报

0

主题

56

帖子

113

积分

新手上路

Rank: 1

积分
113
发表于 2021-10-11 16:46:20 | 显示全部楼层

Where is Administration 4kjia.com?

Where is admin?
It is important.
Thanks.
回复 支持 反对

使用道具 举报

0

主题

22

帖子

104

积分

新手上路

Rank: 1

积分
104
发表于 2021-10-14 18:46:27 | 显示全部楼层
能看嘛  谢谢咯
回复 支持 反对

使用道具 举报

0

主题

3

帖子

12

积分

新手上路

Rank: 1

积分
12
发表于 2021-10-14 22:21:20 来自手机 | 显示全部楼层
qwerr
回复

使用道具 举报

0

主题

11

帖子

45

积分

新手上路

Rank: 1

积分
45
发表于 2021-10-15 16:32:12 | 显示全部楼层

Where is Administration 4kjia.com?

Where is administration?
It is about advertisement on your website.
Thanks.
回复 支持 反对

使用道具 举报

0

主题

11

帖子

45

积分

新手上路

Rank: 1

积分
45
发表于 2021-10-15 20:38:58 | 显示全部楼层

Where is Administration 4kjia.com?

Can I contact admin??
It is important.
Thanks.
回复 支持 反对

使用道具 举报

您需要登录后才可以回帖 登录 | 立即注册

本版积分规则

精彩图文
Archiver|手机版|TAG|Sitemap|新帖|专题|联系我们:邮箱: 4kjia.com@gmail.com   

4k家园   ©2019