足球教练(内嵌简繁中字)(2021) / 第二季全12集 / 4K高清下载

[复制链接]

28

主题

32

帖子

330

积分

版主

Rank: 7Rank: 7Rank: 7

积分
330
 楼主| 发表于 2021-10-10 10:32:50 | 显示全部楼层 |阅读模式
本帖最后由 美剧小虾 于 2021-10-10 10:53 编辑

p2673661961_副本.png

◎译  名 足球教练 第二季/乜都得教练/泰德拉索:错棚教练趣事多
◎片  名 Ted Lasso Season 2
◎年  代 2021
◎产  地 美国
◎类  别 剧情/喜剧/运动
◎语  言 英语
◎上映日期 2021-07-23(美国)
◎IMDb评分  8.8/10 from 107103 users
◎IMDb链接  https://www.imdb.com/title/tt10986410/
◎豆瓣评分 8.9/10 from 2579 users
◎豆瓣链接 https://douban.com/subject/35190584/
◎集  数 12
◎导  演 德克兰·罗内 Declan Lowney
◎主  演 杰森·苏戴奇斯 Jason Sudeikis
       汉娜·沃丁厄姆 Hannah Waddingham
       布兰登·亨特 Brendan Hunt
       帕特里克·巴拉迪 Patrick Baladi
       萨拉·奈尔斯 Sarah Niles
       尼科拉·赖特 Nicola Wright
       查理·希斯科克 Charlie Hiscock
       丹尼尔·厄根 Daniel Eghan



◎简  介


  讲述一位美式足球教练泰德·拉索被聘请管理一支英国足球队,尽管没有经验,但他用乐观的态度、不被看好的决心以及饼干弥补了知识方面的不足。

General
Complete name                  : D:\Ted.Lasso.S02E01.2160p.ATVP.WEB-DL.DDP5.1.Atmos.DV.MP4.x265-DVSUX.mp4
Format                         : MPEG-4
Format profile                 : Base Media / Version 2
Codec ID                       : mp42 (isom/mp42/dby1)
File size                      : 6.11 GiB
Duration                       : 34 min 42 s
Overall bit rate mode          : Variable
Overall bit rate               : 25.2 Mb/s
Encoded date                   : UTC 2021-10-09 12:10:06
Tagged date                    : UTC 2021-10-09 12:10:06
IsTruncated                    : Yes

Video
ID                             : 1
Format                         : HEVC
Format/Info                    : High Efficiency Video Coding
Format profile                 : Main 10@L5@High
HDR format                     : Dolby Vision, Version 1.0, dvhe.05.06, BL+RPU
Codec ID                       : dvhe
Codec ID/Info                  : High Efficiency Video Coding with Dolby Vision
Duration                       : 34 min 42 s
Bit rate                       : 24.4 Mb/s
Width                          : 3 840 pixels
Height                         : 1 920 pixels
Display aspect ratio           : 2.000
Frame rate mode                : Constant
Frame rate                     : 23.976 (24000/1001) FPS
Color space                    : YUV
Chroma subsampling             : 4:2:0
Bit depth                      : 10 bits
Bits/(Pixel*Frame)             : 0.138
Stream size                    : 5.92 GiB (97%)
Default                        : Yes
Alternate group                : 1
Encoded date                   : UTC 2021-10-09 12:09:48
Tagged date                    : UTC 2021-10-09 12:10:17
Codec configuration box        : hvcC+dvcC

Audio
ID                             : 2
Format                         : E-AC-3 JOC
Format/Info                    : Enhanced AC-3 with Joint Object Coding
Commercial name                : Dolby Digital Plus with Dolby Atmos
Codec ID                       : ec-3
Duration                       : 34 min 42 s
Bit rate mode                  : Constant
Bit rate                       : 768 kb/s
Maximum bit rate               : 811 kb/s
Channel(s)                     : 6 channels
Channel layout                 : L R C LFE Ls Rs
Sampling rate                  : 48.0 kHz
Frame rate                     : 31.250 FPS (1536 SPF)
Compression mode               : Lossy
Stream size                    : 191 MiB (3%)
Title                          : English
Language                       : English
Service kind                   : Complete Main
Default                        : Yes
Alternate group                : 1
Tagged date                    : UTC 2021-10-09 12:10:17
Complexity index               : Not present / 16
Number of dynamic objects      : 15
Bed channel count              : 1 channel
Bed channel configuration      : LFE

Text #1
ID                             : 3
Format                         : Timed Text
Codec ID                       : tx3g
Duration                       : 34 min 0 s
Bit rate mode                  : Variable
Bit rate                       : 121 b/s
Stream size                    : 30.3 KiB (0%)
Title                          : English
Language                       : English
Forced                         : No
Encoded date                   : UTC 2021-10-09 12:10:15
Tagged date                    : UTC 2021-10-09 12:10:17

Text #2
ID                             : 4
Format                         : Timed Text
Codec ID                       : tx3g
Duration                       : 34 min 0 s
Bit rate mode                  : Variable
Bit rate                       : 110 b/s
Stream size                    : 27.4 KiB (0%)
Title                          : English
Language                       : English
Forced                         : No
Encoded date                   : UTC 2021-10-09 12:10:15
Tagged date                    : UTC 2021-10-09 12:10:17

Text #3
ID                             : 5
Format                         : Timed Text
Codec ID                       : tx3g
Duration                       : 34 min 34 s
Bit rate mode                  : Variable
Bit rate                       : 143 b/s
Stream size                    : 36.2 KiB (0%)
Title                          : Arabic
Language                       : Arabic
Forced                         : No
Encoded date                   : UTC 2021-10-09 12:10:15
Tagged date                    : UTC 2021-10-09 12:10:17

Text #4
ID                             : 6
Format                         : Timed Text
Codec ID                       : tx3g
Duration                       : 34 min 34 s
Bit rate mode                  : Variable
Bit rate                       : 135 b/s
Stream size                    : 34.3 KiB (0%)
Title                          : Bulgarian
Language                       : Bulgarian
Forced                         : No
Encoded date                   : UTC 2021-10-09 12:10:15
Tagged date                    : UTC 2021-10-09 12:10:17

Text #5
ID                             : 7
Format                         : Timed Text
Codec ID                       : tx3g
Duration                       : 34 min 34 s
Bit rate mode                  : Variable
Bit rate                       : 90 b/s
Stream size                    : 22.8 KiB (0%)
Title                          : Chinese-粤语
Language                       : 中文
Forced                         : No
Encoded date                   : UTC 2021-10-09 12:10:15
Tagged date                    : UTC 2021-10-09 12:10:17

Text #6
ID                             : 8
Format                         : Timed Text
Codec ID                       : tx3g
Duration                       : 34 min 34 s
Bit rate mode                  : Variable
Bit rate                       : 90 b/s
Stream size                    : 22.7 KiB (0%)
Title                          : Chinese-简体
Language                       : 中文
Forced                         : No
Encoded date                   : UTC 2021-10-09 12:10:15
Tagged date                    : UTC 2021-10-09 12:10:17

Text #7
ID                             : 9
Format                         : Timed Text
Codec ID                       : tx3g
Duration                       : 34 min 34 s
Bit rate mode                  : Variable
Bit rate                       : 90 b/s
Stream size                    : 22.9 KiB (0%)
Title                          : Chinese-繁体
Language                       : 中文
Forced                         : No
Encoded date                   : UTC 2021-10-09 12:10:15
Tagged date                    : UTC 2021-10-09 12:10:17


Text #8
ID                             : 10
Format                         : Timed Text
Codec ID                       : tx3g
Duration                       : 34 min 34 s
Bit rate mode                  : Variable
Bit rate                       : 90 b/s
Stream size                    : 22.7 KiB (0%)
Title                          : Czech
Language                       : Czech
Forced                         : No
Encoded date                   : UTC 2021-10-09 12:10:15
Tagged date                    : UTC 2021-10-09 12:10:17

Text #9
ID                             : 11
Format                         : Timed Text
Codec ID                       : tx3g
Duration                       : 34 min 34 s
Bit rate mode                  : Variable
Bit rate                       : 96 b/s
Stream size                    : 24.2 KiB (0%)
Title                          : Danish
Language                       : Danish
Forced                         : No
Encoded date                   : UTC 2021-10-09 12:10:15
Tagged date                    : UTC 2021-10-09 12:10:17

Text #10
ID                             : 12
Format                         : Timed Text
Codec ID                       : tx3g
Duration                       : 34 min 34 s
Bit rate mode                  : Variable
Bit rate                       : 76 b/s
Stream size                    : 19.2 KiB (0%)
Title                          : Dutch
Language                       : Dutch
Forced                         : No
Encoded date                   : UTC 2021-10-09 12:10:15
Tagged date                    : UTC 2021-10-09 12:10:17

Text #11
ID                             : 13
Format                         : Timed Text
Codec ID                       : tx3g
Duration                       : 34 min 34 s
Bit rate mode                  : Variable
Bit rate                       : 92 b/s
Stream size                    : 23.2 KiB (0%)
Title                          : Estonian
Language                       : Estonian
Forced                         : No
Encoded date                   : UTC 2021-10-09 12:10:15
Tagged date                    : UTC 2021-10-09 12:10:17

Text #12
ID                             : 14
Format                         : Timed Text
Codec ID                       : tx3g
Duration                       : 34 min 34 s
Bit rate mode                  : Variable
Bit rate                       : 90 b/s
Stream size                    : 22.8 KiB (0%)
Title                          : Finnish
Language                       : Finnish
Forced                         : No
Encoded date                   : UTC 2021-10-09 12:10:15
Tagged date                    : UTC 2021-10-09 12:10:17

Text #13
ID                             : 15
Format                         : Timed Text
Codec ID                       : tx3g
Duration                       : 34 min 25 s
Bit rate mode                  : Variable
Bit rate                       : 93 b/s
Stream size                    : 23.5 KiB (0%)
Title                          : French
Language                       : French
Forced                         : No
Encoded date                   : UTC 2021-10-09 12:10:15
Tagged date                    : UTC 2021-10-09 12:10:17

Text #14
ID                             : 16
Format                         : Timed Text
Codec ID                       : tx3g
Duration                       : 34 min 25 s
Bit rate mode                  : Variable
Bit rate                       : 93 b/s
Stream size                    : 23.5 KiB (0%)
Title                          : French-CA
Language                       : French
Forced                         : No
Encoded date                   : UTC 2021-10-09 12:10:15
Tagged date                    : UTC 2021-10-09 12:10:17

Text #15
ID                             : 17
Format                         : Timed Text
Codec ID                       : tx3g
Duration                       : 34 min 9 s
Bit rate mode                  : Variable
Bit rate                       : 99 b/s
Stream size                    : 24.7 KiB (0%)
Title                          : German
Language                       : German
Forced                         : No
Encoded date                   : UTC 2021-10-09 12:10:15
Tagged date                    : UTC 2021-10-09 12:10:17

Text #16
ID                             : 18
Format                         : Timed Text
Codec ID                       : tx3g
Duration                       : 34 min 34 s
Bit rate mode                  : Variable
Bit rate                       : 151 b/s
Stream size                    : 38.2 KiB (0%)
Title                          : Greek
Language                       : Greek
Forced                         : No
Encoded date                   : UTC 2021-10-09 12:10:16
Tagged date                    : UTC 2021-10-09 12:10:17

Text #17
ID                             : 19
Format                         : Timed Text
Codec ID                       : tx3g
Duration                       : 34 min 34 s
Bit rate mode                  : Variable
Bit rate                       : 135 b/s
Stream size                    : 34.3 KiB (0%)
Title                          : Hebrew
Language                       : Hebrew
Forced                         : No
Encoded date                   : UTC 2021-10-09 12:10:16
Tagged date                    : UTC 2021-10-09 12:10:17

Text #18
ID                             : 20
Format                         : Timed Text
Codec ID                       : tx3g
Duration                       : 34 min 34 s
Bit rate mode                  : Variable
Bit rate                       : 228 b/s
Stream size                    : 57.8 KiB (0%)
Title                          : Hindi
Language                       : Hindi
Forced                         : No
Encoded date                   : UTC 2021-10-09 12:10:16
Tagged date                    : UTC 2021-10-09 12:10:17

Text #19
ID                             : 21
Format                         : Timed Text
Codec ID                       : tx3g
Duration                       : 34 min 34 s
Bit rate mode                  : Variable
Bit rate                       : 104 b/s
Stream size                    : 26.2 KiB (0%)
Title                          : Hungarian
Language                       : Hungarian
Forced                         : No
Encoded date                   : UTC 2021-10-09 12:10:16
Tagged date                    : UTC 2021-10-09 12:10:17

Text #20
ID                             : 22
Format                         : Timed Text
Codec ID                       : tx3g
Duration                       : 34 min 34 s
Bit rate mode                  : Variable
Bit rate                       : 110 b/s
Stream size                    : 27.9 KiB (0%)
Title                          : Indonesian
Language                       : Indonesian
Forced                         : No
Encoded date                   : UTC 2021-10-09 12:10:16
Tagged date                    : UTC 2021-10-09 12:10:17

Text #21
ID                             : 23
Format                         : Timed Text
Codec ID                       : tx3g
Duration                       : 34 min 25 s
Bit rate mode                  : Variable
Bit rate                       : 105 b/s
Stream size                    : 26.6 KiB (0%)
Title                          : Italian
Language                       : Italian
Forced                         : No
Encoded date                   : UTC 2021-10-09 12:10:16
Tagged date                    : UTC 2021-10-09 12:10:17

Text #22
ID                             : 24
Format                         : Timed Text
Codec ID                       : tx3g
Duration                       : 34 min 40 s
Bit rate mode                  : Variable
Bit rate                       : 77 b/s
Stream size                    : 19.6 KiB (0%)
Title                          : Japanese
Language                       : Japanese
Forced                         : No
Encoded date                   : UTC 2021-10-09 12:10:16
Tagged date                    : UTC 2021-10-09 12:10:17

Text #23
ID                             : 25
Format                         : Timed Text
Codec ID                       : tx3g
Duration                       : 34 min 34 s
Bit rate mode                  : Variable
Bit rate                       : 100 b/s
Stream size                    : 25.5 KiB (0%)
Title                          : Korean
Language                       : Korean
Forced                         : No
Encoded date                   : UTC 2021-10-09 12:10:16
Tagged date                    : UTC 2021-10-09 12:10:17

Text #24
ID                             : 26
Format                         : Timed Text
Codec ID                       : tx3g
Duration                       : 34 min 34 s
Bit rate mode                  : Variable
Bit rate                       : 105 b/s
Stream size                    : 26.7 KiB (0%)
Title                          : Latvian
Language                       : Latvian
Forced                         : No
Encoded date                   : UTC 2021-10-09 12:10:16
Tagged date                    : UTC 2021-10-09 12:10:17

Text #25
ID                             : 27
Format                         : Timed Text
Codec ID                       : tx3g
Duration                       : 34 min 34 s
Bit rate mode                  : Variable
Bit rate                       : 105 b/s
Stream size                    : 26.6 KiB (0%)
Title                          : Lithuanian
Language                       : Lithuanian
Forced                         : No
Encoded date                   : UTC 2021-10-09 12:10:16
Tagged date                    : UTC 2021-10-09 12:10:17

Text #26
ID                             : 28
Format                         : Timed Text
Codec ID                       : tx3g
Duration                       : 34 min 34 s
Bit rate mode                  : Variable
Bit rate                       : 107 b/s
Stream size                    : 27.2 KiB (0%)
Title                          : Malay
Language                       : Malay
Forced                         : No
Encoded date                   : UTC 2021-10-09 12:10:16
Tagged date                    : UTC 2021-10-09 12:10:17

Text #27
ID                             : 29
Format                         : Timed Text
Codec ID                       : tx3g
Duration                       : 34 min 34 s
Bit rate mode                  : Variable
Bit rate                       : 97 b/s
Stream size                    : 24.7 KiB (0%)
Title                          : Norwegian
Language                       : Norwegian
Forced                         : No
Encoded date                   : UTC 2021-10-09 12:10:16
Tagged date                    : UTC 2021-10-09 12:10:17

Text #28
ID                             : 30
Format                         : Timed Text
Codec ID                       : tx3g
Duration                       : 34 min 34 s
Bit rate mode                  : Variable
Bit rate                       : 88 b/s
Stream size                    : 22.4 KiB (0%)
Title                          : Polish
Language                       : Polish
Forced                         : No
Encoded date                   : UTC 2021-10-09 12:10:16
Tagged date                    : UTC 2021-10-09 12:10:17

Text #29
ID                             : 31
Format                         : Timed Text
Codec ID                       : tx3g
Duration                       : 34 min 34 s
Bit rate mode                  : Variable
Bit rate                       : 98 b/s
Stream size                    : 24.8 KiB (0%)
Title                          : Portuguese
Language                       : Portuguese
Forced                         : No
Encoded date                   : UTC 2021-10-09 12:10:16
Tagged date                    : UTC 2021-10-09 12:10:17

Text #30
ID                             : 32
Format                         : Timed Text
Codec ID                       : tx3g
Duration                       : 34 min 34 s
Bit rate mode                  : Variable
Bit rate                       : 94 b/s
Stream size                    : 23.8 KiB (0%)
Title                          : Portuguese-BR
Language                       : Portuguese
Forced                         : No
Encoded date                   : UTC 2021-10-09 12:10:16
Tagged date                    : UTC 2021-10-09 12:10:17

Text #31
ID                             : 33
Format                         : Timed Text
Codec ID                       : tx3g
Duration                       : 34 min 34 s
Bit rate mode                  : Variable
Bit rate                       : 150 b/s
Stream size                    : 38.0 KiB (0%)
Title                          : Russian
Language                       : Russian
Forced                         : No
Encoded date                   : UTC 2021-10-09 12:10:16
Tagged date                    : UTC 2021-10-09 12:10:17

Text #32
ID                             : 34
Format                         : Timed Text
Codec ID                       : tx3g
Duration                       : 34 min 34 s
Bit rate mode                  : Variable
Bit rate                       : 91 b/s
Stream size                    : 22.9 KiB (0%)
Title                          : Slovak
Language                       : Slovak
Forced                         : No
Encoded date                   : UTC 2021-10-09 12:10:16
Tagged date                    : UTC 2021-10-09 12:10:17

Text #33
ID                             : 35
Format                         : Timed Text
Codec ID                       : tx3g
Duration                       : 34 min 34 s
Bit rate mode                  : Variable
Bit rate                       : 85 b/s
Stream size                    : 21.5 KiB (0%)
Title                          : Slovenian
Language                       : Slovenian
Forced                         : No
Encoded date                   : UTC 2021-10-09 12:10:17
Tagged date                    : UTC 2021-10-09 12:10:17

Text #34
ID                             : 36
Format                         : Timed Text
Codec ID                       : tx3g
Duration                       : 34 min 34 s
Bit rate mode                  : Variable
Bit rate                       : 102 b/s
Stream size                    : 25.7 KiB (0%)
Title                          : Spanish
Language                       : Spanish
Forced                         : No
Encoded date                   : UTC 2021-10-09 12:10:17
Tagged date                    : UTC 2021-10-09 12:10:17

Text #35
ID                             : 37
Format                         : Timed Text
Codec ID                       : tx3g
Duration                       : 34 min 34 s
Bit rate mode                  : Variable
Bit rate                       : 95 b/s
Stream size                    : 24.2 KiB (0%)
Title                          : Spanish-EU
Language                       : Spanish
Forced                         : No
Encoded date                   : UTC 2021-10-09 12:10:17
Tagged date                    : UTC 2021-10-09 12:10:17

Text #36
ID                             : 38
Format                         : Timed Text
Codec ID                       : tx3g
Duration                       : 34 min 34 s
Bit rate mode                  : Variable
Bit rate                       : 97 b/s
Stream size                    : 24.6 KiB (0%)
Title                          : Swedish
Language                       : Swedish
Forced                         : No
Encoded date                   : UTC 2021-10-09 12:10:17
Tagged date                    : UTC 2021-10-09 12:10:17

Text #37
ID                             : 39
Format                         : Timed Text
Codec ID                       : tx3g
Duration                       : 34 min 34 s
Bit rate mode                  : Variable
Bit rate                       : 296 b/s
Stream size                    : 74.9 KiB (0%)
Title                          : Tamil
Language                       : Tamil
Forced                         : No
Encoded date                   : UTC 2021-10-09 12:10:17
Tagged date                    : UTC 2021-10-09 12:10:17

Text #38
ID                             : 40
Format                         : Timed Text
Codec ID                       : tx3g
Duration                       : 34 min 34 s
Bit rate mode                  : Variable
Bit rate                       : 259 b/s
Stream size                    : 65.7 KiB (0%)
Title                          : Telugu
Language                       : Telugu
Forced                         : No
Encoded date                   : UTC 2021-10-09 12:10:17
Tagged date                    : UTC 2021-10-09 12:10:17

Text #39
ID                             : 41
Format                         : Timed Text
Codec ID                       : tx3g
Duration                       : 34 min 34 s
Bit rate mode                  : Variable
Bit rate                       : 200 b/s
Stream size                    : 50.6 KiB (0%)
Title                          : Thai
Language                       : Thai
Forced                         : No
Encoded date                   : UTC 2021-10-09 12:10:17
Tagged date                    : UTC 2021-10-09 12:10:17

Text #40
ID                             : 42
Format                         : Timed Text
Codec ID                       : tx3g
Duration                       : 34 min 34 s
Bit rate mode                  : Variable
Bit rate                       : 104 b/s
Stream size                    : 26.2 KiB (0%)
Title                          : Turkish
Language                       : Turkish
Forced                         : No
Encoded date                   : UTC 2021-10-09 12:10:17
Tagged date                    : UTC 2021-10-09 12:10:17

Text #41
ID                             : 43
Format                         : Timed Text
Codec ID                       : tx3g
Duration                       : 34 min 34 s
Bit rate mode                  : Variable
Bit rate                       : 142 b/s
Stream size                    : 36.0 KiB (0%)
Title                          : Ukrainian
Language                       : Ukrainian
Forced                         : No
Encoded date                   : UTC 2021-10-09 12:10:17
Tagged date                    : UTC 2021-10-09 12:10:17

Text #42
ID                             : 44
Format                         : Timed Text
Codec ID                       : tx3g
Duration                       : 34 min 34 s
Bit rate mode                  : Variable
Bit rate                       : 129 b/s
Stream size                    : 32.6 KiB (0%)
Title                          : Vietnamese
Language                       : Vietnamese
Forced                         : No
Encoded date                   : UTC 2021-10-09 12:10:17
Tagged date                    : UTC 2021-10-09 12:10:17


下载地址

游客,如果您要查看本帖隐藏内容请回复

游客,如果您要查看本帖隐藏内容请回复
游客,如果您要查看本帖隐藏内容请回复

游客,如果您要查看本帖隐藏内容请回复



外挂中文字幕下载: Ted.Lasso.S02.2160p.ATVP.WEB-DL.DDP5.1.Atmos.DV.MP4.x265-DVSUX.中英官中.zip (368.68 KB)

上一篇:古惑丑拍档 (内嵌中字) (2021) / 第一季全12集 / 4K高清下载
下一篇:低俗怪谈:天使之城 (2020) / 第一季全10集 / 4K高清下载
回复

使用道具 举报

1

主题

1366

帖子

3906

积分

4K家园VIP

Rank: 9Rank: 9Rank: 9

积分
3906
发表于 2021-10-10 10:33:06 | 显示全部楼层
哈哈,我只看看不说话
回复 支持 反对

使用道具 举报

40

主题

1481

帖子

4233

积分

4K家园VIP

Rank: 9Rank: 9Rank: 9

积分
4233
发表于 2021-10-10 10:33:06 | 显示全部楼层
高手云集 果断围观
回复 支持 反对

使用道具 举报

3

主题

1562

帖子

4280

积分

4K家园VIP

Rank: 9Rank: 9Rank: 9

积分
4280
发表于 2021-10-10 10:44:05 来自手机 | 显示全部楼层
路过的帮顶
回复 支持 反对

使用道具 举报

0

主题

5991

帖子

1万

积分

4K家园VIP

Rank: 9Rank: 9Rank: 9

积分
14278
发表于 2021-10-10 11:05:44 | 显示全部楼层
太好啦&萬分感謝版主的無私發佈分享%
回复 支持 反对

使用道具 举报

0

主题

1273

帖子

3835

积分

4K家园VIP

Rank: 9Rank: 9Rank: 9

积分
3835
发表于 2021-10-10 22:45:33 | 显示全部楼层
分享的不错,希望楼主继续分享
回复 支持 反对

使用道具 举报

3

主题

1287

帖子

3881

积分

4K家园VIP

Rank: 9Rank: 9Rank: 9

积分
3881
发表于 2021-10-10 23:29:42 | 显示全部楼层
支持你哈...................................
回复 支持 反对

使用道具 举报

您需要登录后才可以回帖 登录 | 立即注册

本版积分规则

精彩图文
Archiver|手机版|TAG|Sitemap|新帖|专题|联系我们:邮箱: 4kjia.com@gmail.com   

4k家园   ©2019