低俗怪谈:天使之城 (2020) / 第一季全10集 / 4K高清下载

[复制链接]

28

主题

32

帖子

330

积分

版主

Rank: 7Rank: 7Rank: 7

积分
330
 楼主| 发表于 2021-10-10 10:49:57 | 显示全部楼层 |阅读模式
p2592756318_副本.jpg

◎译  名 低俗怪谈:天使之城/天使之城
◎片  名 Penny Dreadful: City of Angels
◎年  代 2020
◎产  地 美国
◎类  别 剧情/恐怖
◎语  言 英语
◎上映日期 2020-04-26(美国)
◎IMDb评分  6.0/10 from 8909 users
◎IMDb链接  https://www.imdb.com/title/tt10361016/
◎豆瓣评分 6.3/10 from 1036 users
◎豆瓣链接 https://douban.com/subject/30368415/
◎集  数 10
◎导  演 帕科·卡贝萨斯  / 罗克珊·道森  / 谢雷·福克森  / 塞尔吉奥·米米卡-戈赞
◎编  剧 约翰·洛根 John Logan / 内森·连恩 Nathan Lane
◎主  演 娜塔莉·多默尔 Natalie Dormer
       丹尼尔·祖瓦图 Daniel Zovatto
       艾德里安娜·巴拉扎 Adriana Barraza
       杰西卡·加萨 Jessica Garza
       罗里·金尼尔 Rory Kinnear
       内森·连恩 Nathan Lane
       迈克尔·盖拉迪斯 Michael J. X. Gladis
       朱利安·希威德 Julian Hilliard
       洛伦扎·伊佐 Lorenza Izzo
       托马斯·克莱舒曼 Thomas Kretschmann
       埃米·马迪根 Amy Madigan
       伊森·派克 Ethan Peck
       亚当·罗德里格兹 Adam Rodriguez
       林·沙烨 Lin Shaye
       多米尼克·谢尔伍德 Dominic Sherwood
       斯科特·比纳 Scott Beehner
       林赛·穆齐尔 Lindsay Musil
       桑蒂诺·巴纳德 Santino Barnard
       凯瑞·碧许 Kerry Bishé
       帕蒂·卢波恩 Patti LuPone
       大卫·A·威廉斯 David A. Williams
       达林·库珀 Darin Cooper
       乔伊·雅各布森 Joy Jacobson
       伊戈·米基塔斯 Ego Mikitas
       Gleb Kaminer
       塞巴斯蒂安·查孔 Sebastian Chacon



◎简  介


  Showtime宣布制作《低俗怪谈 Penny Dreadful》精神续篇剧《低俗怪谈:天使之城 Penny Dreadful: City of Angels》,该剧由母剧的主创﹑编剧兼执行制片John Logan继续负责。
  《低俗怪谈:天使之城》将离开维多利亚时代的伦 敦,改为以新角色及新故事讲述1938年的洛杉矶,这个时间当地融入了墨西哥裔美国人,而剧中会以真实历史为佐料下描述各超自然角色之间的冲突及联系。

General
Complete name                  : D:\Penny.Dreadful.City.of.Angels.S01E01.2160p.SHO.WEB-DL.DDP5.1.DV.MP4.x265-DVSUX.mp4
Format                         : MPEG-4
Format profile                 : Base Media / Version 2
Codec ID                       : mp42 (isom/mp42/dby1)
File size                      : 5.44 GiB
Duration                       : 1 h 7 min
Overall bit rate mode          : Variable
Overall bit rate               : 11.5 Mb/s
Encoded date                   : UTC 2021-10-09 07:43:20
Tagged date                    : UTC 2021-10-09 07:43:20
IsTruncated                    : Yes

Video
ID                             : 1
Format                         : HEVC
Format/Info                    : High Efficiency Video Coding
Format profile                 : Main 10@L5@Main
HDR format                     : Dolby Vision, Version 1.0, dvhe.05.06, BL+RPU
Codec ID                       : dvhe
Codec ID/Info                  : High Efficiency Video Coding with Dolby Vision
Duration                       : 1 h 7 min
Bit rate                       : 14.7 Mb/s
Width                          : 3 840 pixels
Height                         : 2 160 pixels
Display aspect ratio           : 16:9
Frame rate mode                : Constant
Frame rate                     : 23.976 (24000/1001) FPS
Color space                    : YUV
Chroma subsampling             : 4:2:0
Bit depth                      : 10 bits
Bits/(Pixel*Frame)             : 0.074
Stream size                    : 6.98 GiB
Writing library                : x265 3.0hy-RC:[Linux][GCC 7.5.0][64 bit] 10bit
Encoding settings              : cpuid=1111039 / frame-threads=1 / no-wpp / no-pmode / no-pme / no-psnr / no-ssim / log-level=2 / input-csp=1 / input-res=3840x2160 / interlace=0 / total-frames=0 / level-idc=0 / high-tier=1 / uhd-bd=0 / ref=4 / no-allow-non-conformance / repeat-headers / annexb / aud / hrd / info / hash=0 / no-temporal-layers / no-open-gop / min-keyint=48 / keyint=48 / gop-lookahead=0 / bframes=4 / b-adapt=2 / b-pyramid / bframe-bias=0 / rc-lookahead=48 / lookahead-slices=4 / scenecut=0 / radl=0 / no-splice / no-intra-refresh / ctu=64 / min-cu-size=8 / rect / no-amp / max-tu-size=32 / tu-inter-depth=1 / tu-intra-depth=1 / limit-tu=0 / rdoq-level=2 / dynamic-rd=0.00 / no-ssim-rd / signhide / no-tskip / nr-intra=100 / nr-inter=400 / no-constrained-intra / strong-intra-smoothing / max-merge=3 / limit-refs=3 / limit-modes / me=3 / subme=3 / merange=57 / temporal-mvp / no-hme / weightp / no-weightb / no-analyze-src-pics / deblock=0:0 / sao / no-sao-non-deblock / rd=4 / selective-sao=4 / no-early-skip / rskip / no-fast-intra / no-tskip-fast / no-cu-lossless / no-b-intra / no-splitrd-skip / rdpenalty=0 / psy-rd=0.00 / psy-rdoq=1.00 / no-rd-refine / no-lossless / cbqpoffs=0 / crqpoffs=3 / rc=abr / bitrate=15000 / qcomp=0.60 / qpstep=4 / stats-write=0 / stats-read=2 / cplxblur=20.0 / qblur=0.5 / vbv-maxrate=18000 / vbv-bufsize=12000 / vbv-init=0.6 / vbv-end=0.6 / vbv-end-fr-adj=0.0 / ipratio=1.40 / pbratio=1.30 / aq-mode=2 / aq-strength=1.00 / cutree / zone-count=0 / no-strict-cbr / qg-size=32 / no-rc-grain / qpmax=69 / qpmin=0 / no-const-vbv / sar=1 / overscan=0 / videoformat=5 / range=1 / colorprim=2 / transfer=2 / colormatrix=2 / chromaloc=0 / display-window=0 / cll=0,0 / min-luma=0 / max-luma=1023 / log2-max-poc-lsb=8 / vui-timing-info / vui-hrd-info / no-concatenation / slices=1 / no-opt-qp-pps / no-opt-ref-list-length-pps / no-multi-pass-opt-rps / scenecut-bias=0.05 / no-opt-cu-delta-qp / no-aq-motion / no-hdr / no-hdr-opt / no-dhdr10-opt / no-idr-recovery-sei / analysis-reuse-level=5 / scale-factor=0 / refine-intra=0 / refine-inter=0 / refine-mv=1 / refine-ctu-distortion=0 / no-limit-sao / ctu-info=0 / no-lowpass-dct / refine-analysis-type=0 / copy-pic=1 / max-ausize-factor=1.0 / no-dynamic-refine / no-single-sei / no-hevc-aq / no-svt / no-field / qp-adaptation-range=1.00
Default                        : Yes
Alternate group                : 1
Encoded date                   : UTC 2021-10-09 07:42:50
Tagged date                    : UTC 2021-10-09 07:43:25
Color range                    : Full
Codec configuration box        : hvcC+dvcC

Audio
ID                             : 2
Format                         : AC-3
Format/Info                    : Audio Coding 3
Commercial name                : Dolby Digital
Codec ID                       : ac-3
Duration                       : 1 h 7 min
Bit rate mode                  : Constant
Bit rate                       : 384 kb/s
Maximum bit rate               : 406 kb/s
Channel(s)                     : 6 channels
Channel layout                 : L R C LFE Ls Rs
Sampling rate                  : 48.0 kHz
Frame rate                     : 31.250 FPS (1536 SPF)
Compression mode               : Lossy
Stream size                    : 187 MiB (3%)
Title                          : English
Language                       : English
Service kind                   : Complete Main
Default                        : Yes
Alternate group                : 1
Tagged date                    : UTC 2021-10-09 07:43:25

Text
ID                             : 3
Format                         : Timed Text
Codec ID                       : tx3g
Duration                       : 1 h 6 min
Bit rate mode                  : Variable
Bit rate                       : 89 b/s
Stream size                    : 43.7 KiB (0%)
Title                          : English
Language                       : English
Forced                         : No
Encoded date                   : UTC 2021-10-09 07:43:25
Tagged date                    : UTC 2021-10-09 07:43:25
下载地址:

游客,如果您要查看本帖隐藏内容请回复

游客,如果您要查看本帖隐藏内容请回复






上一篇:足球教练(内嵌简繁中字)(2021) / 第二季全12集 / 4K高清下载
下一篇:反派 / Heels (2021) / 第一季全8集 / 4K高清下载
回复

使用道具 举报

1

主题

1364

帖子

3940

积分

4K家园VIP

Rank: 9Rank: 9Rank: 9

积分
3940
发表于 2021-10-10 10:50:16 | 显示全部楼层
啊啊啊啊啊啊啊啊啊啊啊
回复 支持 反对

使用道具 举报

0

主题

5990

帖子

1万

积分

4K家园VIP

Rank: 9Rank: 9Rank: 9

积分
14277
发表于 2021-10-10 11:06:10 | 显示全部楼层
太好啦&萬分感謝版主的無私發佈分享%
回复 支持 反对

使用道具 举报

5

主题

1441

帖子

4167

积分

4K家园VIP

Rank: 9Rank: 9Rank: 9

积分
4167
发表于 2021-10-10 11:23:32 | 显示全部楼层
好像还可以
回复 支持 反对

使用道具 举报

0

主题

21

帖子

105

积分

新手上路

Rank: 1

积分
105
发表于 2021-10-10 20:32:46 | 显示全部楼层
111111111111111111111
回复 支持 反对

使用道具 举报

0

主题

1269

帖子

3827

积分

4K家园VIP

Rank: 9Rank: 9Rank: 9

积分
3827
发表于 2021-10-11 20:20:36 | 显示全部楼层
小白一个 顶一下
回复 支持 反对

使用道具 举报

0

主题

5

帖子

21

积分

新手上路

Rank: 1

积分
21
发表于 2021-10-11 22:36:11 | 显示全部楼层
好片大家一定要下载哦!
回复 支持 反对

使用道具 举报

0

主题

1297

帖子

3903

积分

4K家园VIP

Rank: 9Rank: 9Rank: 9

积分
3903
发表于 4 天前 | 显示全部楼层
非常好,顶一下
回复 支持 反对

使用道具 举报

13

主题

1167

帖子

3473

积分

4K家园VIP

Rank: 9Rank: 9Rank: 9

积分
3473
发表于 3 天前 | 显示全部楼层
锄禾日当午,发帖真辛苦。谁知坛中餐,帖帖皆辛苦!
回复 支持 反对

使用道具 举报

0

主题

10

帖子

45

积分

4K家园VIP

Rank: 9Rank: 9Rank: 9

积分
45
发表于 昨天 20:08 | 显示全部楼层
谢谢楼主分享
回复 支持 反对

使用道具 举报

您需要登录后才可以回帖 登录 | 立即注册

本版积分规则

精彩图文
Archiver|手机版|TAG|Sitemap|新帖|专题|联系我们:邮箱: 4kjia.com@gmail.com   

4k家园   ©2019