[4KMV] 2021 Karol G feat. Mariah Angeliq – El Makinon [2160P /MP4/1.19GB]

[复制链接]

2567

主题

2891

帖子

2万

积分

超级版主

Rank: 8Rank: 8

积分
24049
 楼主| 发表于 2021-10-11 10:34:15 | 显示全部楼层 |阅读模式
Karol G feat. Mariah Angeliq – El Makinon (2021).mp4_20211011_102229.137.jpg Karol G feat. Mariah Angeliq – El Makinon (2021).mp4_20211011_102236.410.jpg Karol G feat. Mariah Angeliq – El Makinon (2021).mp4_20211011_102300.530.jpg Karol G feat. Mariah Angeliq – El Makinon (2021).mp4_20211011_102308.579.jpg Karol G feat. Mariah Angeliq – El Makinon (2021).mp4_20211011_102412.210.jpg Karol G feat. Mariah Angeliq – El Makinon (2021).mp4_20211011_102429.602.jpg
General
Complete name                  : E:\4K@MV\Karol G feat. Mariah Angeliq – El Makinon (2021).mp4
Format                         : MPEG-4
Format profile                 : Base Media / Version 2
Codec ID                       : mp42 (mp42/mp41)
File size                      : 1.20 GiB
Duration                       : 3 min 33 s
Overall bit rate mode          : Variable
Overall bit rate               : 48.2 Mb/s
Encoded date                   : UTC 2021-03-25 02:02:58
Tagged date                    : UTC 2021-03-25 02:08:20
TIM                            : 00:00:00:00
TSC                            : 24000
TSZ                            : 1001

Video
ID                             : 1
Format                         : AVC
Format/Info                    : Advanced Video Codec
Format profile                 : High@L5.2
Format settings                : CABAC / 4 Ref Frames
Format settings, CABAC         : Yes
Format settings, Reference fra : 4 frames
Format settings, GOP           : M=3, N=23
Codec ID                       : avc1
Codec ID/Info                  : Advanced Video Coding
Duration                       : 3 min 33 s
Bit rate                       : 47.9 Mb/s
Width                          : 3 840 pixels
Height                         : 2 160 pixels
Display aspect ratio           : 16:9
Frame rate mode                : Constant
Frame rate                     : 23.976 (24000/1001) FPS
Color space                    : YUV
Chroma subsampling             : 4:2:0
Bit depth                      : 8 bits
Scan type                      : Progressive
Bits/(Pixel*Frame)             : 0.241
Stream size                    : 1.19 GiB (99%)
Language                       : English
Encoded date                   : UTC 2021-03-25 02:03:01
Tagged date                    : UTC 2021-03-25 02:03:01
Color range                    : Limited
Color primaries                : BT.709
Transfer characteristics       : BT.709
Matrix coefficients            : BT.709
Codec configuration box        : avcC

Audio
ID                             : 2
Format                         : AAC LC
Format/Info                    : Advanced Audio Codec Low Complexity
Codec ID                       : mp4a-40-2
Duration                       : 3 min 33 s
Source duration                : 3 min 33 s
Bit rate mode                  : Variable
Bit rate                       : 317 kb/s
Maximum bit rate               : 468 kb/s
Channel(s)                     : 2 channels
Channel layout                 : L R
Sampling rate                  : 48.0 kHz
Frame rate                     : 46.875 FPS (1024 SPF)
Compression mode               : Lossy
Stream size                    : 8.08 MiB (1%)
Source stream size             : 8.08 MiB (1%)
Language                       : English
Encoded date                   : UTC 2021-03-25 02:02:59
Tagged date                    : UTC 2021-03-25 02:02:59

****此区域为收费内容****    需支付 15 金币后可查看立即购买

请用QB下载软件效果更佳





上一篇:[4KMV] 2021 IU - LILAC (Bugs) [2160P /MP4/818MB]
回复

使用道具 举报

1

主题

1328

帖子

4002

积分

4K家园VIP

Rank: 9Rank: 9Rank: 9

积分
4002
发表于 2021-10-11 10:34:20 来自手机 | 显示全部楼层
鼎力支持!!
回复 支持 反对

使用道具 举报

47

主题

1473

帖子

4261

积分

4K家园VIP

Rank: 9Rank: 9Rank: 9

积分
4261
发表于 2021-10-11 10:52:34 | 显示全部楼层
我是个凑数的。。。
回复 支持 反对

使用道具 举报

6

主题

1164

帖子

3516

积分

4K家园VIP

Rank: 9Rank: 9Rank: 9

积分
3516
发表于 2021-10-11 11:06:19 | 显示全部楼层
支持一下楼主,顶起来
回复 支持 反对

使用道具 举报

1

主题

1286

帖子

3680

积分

4K家园VIP

Rank: 9Rank: 9Rank: 9

积分
3680
发表于 2021-10-11 11:43:56 | 显示全部楼层
4K电影下个试试
回复 支持 反对

使用道具 举报

46

主题

1423

帖子

4083

积分

4K家园VIP

Rank: 9Rank: 9Rank: 9

积分
4083
发表于 2021-10-11 12:12:25 来自手机 | 显示全部楼层
垃圾内容,路过为证。
回复 支持 反对

使用道具 举报

0

主题

647

帖子

2256

积分

注册会员

Rank: 2

积分
2256
发表于 2021-10-11 14:00:04 | 显示全部楼层
谢谢楼主分享
回复 支持 反对

使用道具 举报

0

主题

647

帖子

2256

积分

注册会员

Rank: 2

积分
2256
发表于 5 天前 | 显示全部楼层
谢谢楼主的分享
回复 支持 反对

使用道具 举报

0

主题

647

帖子

2256

积分

注册会员

Rank: 2

积分
2256
发表于 4 天前 | 显示全部楼层

感谢楼主分享
回复 支持 反对

使用道具 举报

您需要登录后才可以回帖 登录 | 立即注册

本版积分规则

精彩图文
Archiver|手机版|TAG|Sitemap|新帖|专题|联系我们:邮箱: 4kjia.com@gmail.com   

4k家园   ©2019