反派 / Heels (2021) / 第一季全8集 / 4K高清下载

[复制链接]

28

主题

32

帖子

330

积分

版主

Rank: 7Rank: 7Rank: 7

积分
330
 楼主| 发表于 2021-10-11 12:17:12 | 显示全部楼层 |阅读模式
本帖最后由 美剧小虾 于 2021-10-11 13:09 编辑

p2672861823_副本.jpg

◎译  名 反派/卑鄙小人
◎片  名 Heels
◎年  代 2021
◎产  地 美国
◎类  别 剧情/运动
◎语  言 英语
◎上映日期 2021-08-15(美国)
◎IMDb评分  8.1/10 from 3258 users
◎IMDb链接   https://www.imdb.com/title/tt6554240/
◎豆瓣评分 7.4/10 from 220 users
◎豆瓣链接 https://douban.com/subject/34800072/
◎集  数 8
◎导  演 彼得·西格尔 Peter Segal
◎编  剧 迈克尔·沃尔德伦 Michael Waldron
◎主  演 斯蒂芬·阿梅尔 Stephen Amell
       凯莉·伯格伦德 Kelli Berglund
       亚历山大·路德韦格 Alexander Ludwig
       梅丽莎·乐爱伦 Melissa LeEllen
       玛丽·麦克科马克 Mary McCormack
       乔尔·默里 Joel Murray
       爱丽丝·巴雷特 Alice Barrett
       大卫·詹姆斯·艾略特 David James Elliott
       艾丽卡·帕普帕斯 Erica Pappas
       拉里·克拉克 Larry Clarke
       西尔·布罗迪 Sir Brodie
       卢克·霍克斯 Luke Hawx
       佐伊·迈尔斯 Zoe Myers
       凯莉·奥马利 Kerry O'Malley
       克里斯·鲍尔 Chris Bauer
       阿伦·马尔多纳多 Allen Maldonado
        James Harrison
       Ross Benjamin Ross Benjamin
       Tracy Goode Tracy Goode
       莎朗·莫里斯 Sharon Morris
       斯宾塞·加雷特 Spencer Garrett
       马洛里·霍夫 Mallory Hoff
       Jack Landry Jack Landry
       利兹·麦吉弗 Liz McGeever
       艾琳·欧贝 Erin Ownbey



◎简  介


  斯蒂芬·阿梅尔(《绿箭侠》)将主演Starz 8集新剧《卑鄙小人》(Heels,暂译)。迈克尔·沃尔卓恩操刀剧本,迈克·奥麦利(《无耻之徒》)担任剧集运作。剧集围绕美国小镇里追逐摔跤梦的男男女女展开。故事讲述在乔治亚州的一个家庭运营的摔跤俱乐部中,两兄弟与对手一同争夺他们已故父亲留下的财产。阿梅尔饰演的角色在这个俱乐部算是卑鄙小人,但在现实生活中,他却是勤勉的老板、丈夫与父亲。他尽一切可能将俱乐部运营得更好。
General

Complete name                  : f:\Heels.S01E01.2160p.STAN.WEB-DL.DDP5.1.HEVC-TEPES.mkv
Format                         : Matroska
Format version                 : Version 4
File size                      : 4.19 GiB
Duration                       : 1 h 2 min
Overall bit rate               : 9 639 kb/s
Encoded date                   : UTC 2021-08-15 06:07:17
Writing application            : mkvmerge v59.0.0 ('Shining Star') 64-bit
Writing library                : libebml v1.4.2 + libmatroska v1.6.4
IsTruncated                    : Yes

Video
ID                             : 1
Format                         : HEVC
Format/Info                    : High Efficiency Video Coding
Format profile                 : Main@L5@High
Codec ID                       : V_MPEGH/ISO/HEVC
Duration                       : 1 h 2 min
Bit rate                       : 8 807 kb/s
Width                          : 3 840 pixels
Height                         : 2 160 pixels
Display aspect ratio           : 16:9
Frame rate mode                : Constant
Frame rate                     : 23.976 (24000/1001) FPS
Color space                    : YUV
Chroma subsampling             : 4:2:0
Bit depth                      : 8 bits
Bits/(Pixel*Frame)             : 0.044
Stream size                    : 3.83 GiB (91%)
Default                        : Yes
Forced                         : No
Color range                    : Limited
Color primaries                : BT.709
Transfer characteristics       : BT.709
Matrix coefficients            : BT.709

Audio
ID                             : 2
Format                         : E-AC-3
Format/Info                    : Enhanced AC-3
Commercial name                : Dolby Digital Plus
Codec ID                       : A_EAC3
Duration                       : 1 h 2 min
Bit rate mode                  : Constant
Bit rate                       : 640 kb/s
Channel(s)                     : 6 channels
Channel layout                 : L R C LFE Ls Rs
Sampling rate                  : 48.0 kHz
Frame rate                     : 31.250 FPS (1536 SPF)
Compression mode               : Lossy
Stream size                    : 285 MiB (7%)
Language                       : English
Service kind                   : Complete Main
Default                        : Yes
Forced                         : No

Text
ID                             : 3
Format                         : UTF-8
Codec ID                       : S_TEXT/UTF8
Codec ID/Info                  : UTF-8 Plain Text
Title                          : SDH
Language                       : English
Default                        : No
Forced                         : No

下载地址

游客,如果您要查看本帖隐藏内容请回复
  






上一篇:低俗怪谈:天使之城 (2020) / 第一季全10集 / 4K高清下载
下一篇:拉字至上:Q世代 (2021) / 第二季全10集 / 4K高清下载
回复

使用道具 举报

2

主题

1359

帖子

4095

积分

4K家园VIP

Rank: 9Rank: 9Rank: 9

积分
4095
发表于 2021-10-11 12:17:29 | 显示全部楼层
小白一个 顶一下
回复 支持 反对

使用道具 举报

0

主题

3

帖子

15

积分

新手上路

Rank: 1

积分
15
发表于 2021-10-11 14:37:49 | 显示全部楼层
我要看完
回复

使用道具 举报

43

主题

1446

帖子

4144

积分

4K家园VIP

Rank: 9Rank: 9Rank: 9

积分
4144
发表于 2021-10-12 04:24:48 | 显示全部楼层
沙发???
回复 支持 反对

使用道具 举报

3

主题

1331

帖子

4015

积分

4K家园VIP

Rank: 9Rank: 9Rank: 9

积分
4015
发表于 2021-10-14 11:24:16 | 显示全部楼层
我也顶起出售广告位
回复 支持 反对

使用道具 举报

56

主题

1408

帖子

4058

积分

4K家园VIP

Rank: 9Rank: 9Rank: 9

积分
4058
发表于 7 天前 | 显示全部楼层
路过
回复 支持 反对

使用道具 举报

0

主题

1281

帖子

3867

积分

4K家园VIP

Rank: 9Rank: 9Rank: 9

积分
3867
发表于 5 天前 来自手机 | 显示全部楼层
围观 围观 沙发在哪里!!!
回复 支持 反对

使用道具 举报

您需要登录后才可以回帖 登录 | 立即注册

本版积分规则

精彩图文
Archiver|手机版|TAG|Sitemap|新帖|专题|联系我们:邮箱: 4kjia.com@gmail.com   

4k家园   ©2019