拉字至上:Q世代 (2021) / 第二季全10集 / 4K高清下载

[复制链接]

28

主题

32

帖子

330

积分

版主

Rank: 7Rank: 7Rank: 7

积分
330
 楼主| 发表于 2021-10-11 13:16:26 | 显示全部楼层 |阅读模式
p2676195730_副本.jpg

◎译  名 拉字至上:Q世代 第二季
◎片  名 The L Word: Generation Q Season 2
◎年  代 2021
◎产  地 美国
◎类  别 剧情/爱情/同性
◎语  言 英语
◎上映日期 2021-08-06(美国)
◎IMDb评分  7.4/10 from 4833 users
◎IMDb链接  https://www.imdb.com/title/tt7661384/

◎豆瓣评分 7.3/10 from 132 users
◎豆瓣链接 https://douban.com/subject/34948087/
◎集  数 10
◎导  演 马里加·路易斯·瑞恩
◎编  剧 艾琳·柴肯 Ilene Chaiken / 凯茜·格林伯格 Kathy Greenberg / 马里加·路易斯·瑞恩 Marja Lewis Ryan
◎主  演 恩尼弗·比尔斯
                   凯瑟琳·莫宁
                   莱莎·海利
                   杰奎琳·托博尼
                   塞皮德·莫菲
                   阿里恩·曼迪
                  利奥·盛


◎简  介


  Showtime宣布续订《拉字至上:Q世代》第二季。

General
Complete name                  : E:\4K@美剧The.L.Word.Generation.Q.S02E01.2160p.SHO.WEB-DL.DDP5.1.x265-NTb.mkv
Format                         : Matroska
Format version                 : Version 4
File size                      : 3.52 GiB
Duration                       : 59 min 30 s
Overall bit rate               : 8 466 kb/s
Encoded date                   : UTC 2021-08-09 01:30:37
Writing application            : mkvmerge v44.0.0 ('Domino') 64-bit
Writing library                : libebml v1.3.10 + libmatroska v1.5.2
IsTruncated                    : Yes

Video
ID                             : 1
Format                         : HEVC
Format/Info                    : High Efficiency Video Coding
Format profile                 : Main@L5@Main
Codec ID                       : V_MPEGH/ISO/HEVC
Duration                       : 59 min 30 s
Bit rate                       : 7 657 kb/s
Width                          : 3 840 pixels
Height                         : 2 160 pixels
Display aspect ratio           : 16:9
Frame rate mode                : Constant
Frame rate                     : 23.976 (24000/1001) FPS
Color space                    : YUV
Chroma subsampling             : 4:2:0
Bit depth                      : 8 bits
Bits/(Pixel*Frame)             : 0.039
Stream size                    : 3.18 GiB (90%)
Writing library                : x265 3.4hy:[Linux][GCC 7.5.0][64 bit] 8bit
Encoding settings              : cpuid=1111039 / frame-threads=6 / no-wpp / no-pmode / no-pme / no-psnr / no-ssim / log-level=2 / input-csp=1 / input-res=3840x2160 / interlace=0 / total-frames=0 / level-idc=0 / high-tier=1 / uhd-bd=0 / ref=4 / no-allow-non-conformance / repeat-headers / annexb / aud / hrd / info / hash=0 / no-temporal-layers / no-open-gop / min-keyint=48 / keyint=48 / gop-lookahead=0 / bframes=4 / b-adapt=2 / b-pyramid / bframe-bias=0 / rc-lookahead=48 / lookahead-slices=4 / scenecut=0 / hist-scenecut=0 / radl=0 / no-splice / no-intra-refresh / ctu=64 / min-cu-size=8 / rect / no-amp / max-tu-size=32 / tu-inter-depth=1 / tu-intra-depth=1 / limit-tu=0 / rdoq-level=2 / dynamic-rd=0.00 / no-ssim-rd / signhide / no-tskip / nr-intra=100 / nr-inter=400 / no-constrained-intra / strong-intra-smoothing / max-merge=3 / limit-refs=3 / limit-modes / me=3 / subme=3 / merange=57 / temporal-mvp / no-frame-dup / no-hme / weightp / no-weightb / no-analyze-src-pics / deblock=0:0 / sao / no-sao-non-deblock / rd=4 / selective-sao=4 / no-early-skip / rskip / no-fast-intra / no-tskip-fast / no-cu-lossless / no-b-intra / no-splitrd-skip / rdpenalty=0 / psy-rd=0.00 / psy-rdoq=1.00 / no-rd-refine / no-lossless / cbqpoffs=0 / crqpoffs=0 / rc=abr / bitrate=15000 / qcomp=0.60 / qpstep=4 / stats-write=0 / stats-read=2 / cplxblur=20.0 / qblur=0.5 / vbv-maxrate=18000 / vbv-bufsize=12000 / vbv-init=0.6 / vbv-end=0.6 / vbv-end-fr-adj=0.0 / ipratio=1.40 / pbratio=1.30 / aq-mode=2 / aq-strength=1.00 / cutree / zone-count=0 / no-strict-cbr / qg-size=32 / no-rc-grain / qpmax=69 / qpmin=0 / no-const-vbv / sar=1 / overscan=0 / videoformat=5 / range=0 / colorprim=1 / transfer=1 / colormatrix=1 / chromaloc=0 / display-window=0 / cll=0,0 / min-luma=0 / max-luma=255 / log2-max-poc-lsb=8 / vui-timing-info / vui-hrd-info / no-concatenation / slices=1 / no-opt-qp-pps / no-opt-ref-list-length-pps / no-multi-pass-opt-rps / scenecut-bias=0.05 / hist-threshold=0.01 / no-opt-cu-delta-qp / no-aq-motion / no-hdr10 / no-hdr10-opt / no-dhdr10-opt / no-idr-recovery-sei / analysis-reuse-level=0 / analysis-save-reuse-level=0 / analysis-load-reuse-level=0 / scale-factor=0 / refine-intra=0 / refine-inter=0 / refine-mv=1 / refine-ctu-distortion=0 / no-limit-sao / ctu-info=0 / no-lowpass-dct / refine-analysis-type=0 / copy-pic=1 / max-ausize-factor=1.0 / no-dynamic-refine / no-single-sei / no-hevc-aq / no-svt / no-field / qp-adaptation-range=1.00 / no-scenecut-aware-qpconformance-window-offsets / right=0 / bottom=0 / decoder-max-rate=0
Default                        : Yes
Forced                         : No
Color range                    : Limited
Color primaries                : BT.709
Transfer characteristics       : BT.709
Matrix coefficients            : BT.709

Audio
ID                             : 2
Format                         : E-AC-3
Format/Info                    : Enhanced AC-3
Commercial name                : Dolby Digital Plus
Codec ID                       : A_EAC3
Duration                       : 59 min 30 s
Bit rate mode                  : Constant
Bit rate                       : 640 kb/s
Channel(s)                     : 6 channels
Channel layout                 : L R C LFE Ls Rs
Sampling rate                  : 48.0 kHz
Frame rate                     : 31.250 FPS (1536 SPF)
Compression mode               : Lossy
Delay relative to video        : 18 ms
Stream size                    : 272 MiB (8%)
Language                       : English
Service kind                   : Complete Main
Default                        : Yes
Forced                         : No

Text #1
ID                             : 3
Format                         : UTF-8
Codec ID                       : S_TEXT/UTF8
Codec ID/Info                  : UTF-8 Plain Text
Language                       : English
Default                        : No
Forced                         : No

Text #2
ID                             : 4
Format                         : UTF-8
Codec ID                       : S_TEXT/UTF8
Codec ID/Info                  : UTF-8 Plain Text
Title                          : SDH
Language                       : English
Default                        : No
Forced                         : No

下载地址

游客,如果您要查看本帖隐藏内容请回复

游客,如果您要查看本帖隐藏内容请回复

游客,如果您要查看本帖隐藏内容请回复








上一篇:反派 / Heels (2021) / 第一季全8集 / 4K高清下载
下一篇:穷友记 / Brassic (2021) / 第三季全8集 / 4K高清下载
回复

使用道具 举报

2

主题

1519

帖子

4129

积分

4K家园VIP

Rank: 9Rank: 9Rank: 9

积分
4129
发表于 2021-10-11 13:42:09 | 显示全部楼层
边撸边过
回复 支持 反对

使用道具 举报

2

主题

1298

帖子

3728

积分

4K家园VIP

Rank: 9Rank: 9Rank: 9

积分
3728
发表于 2021-10-11 13:42:09 | 显示全部楼层
very good
回复 支持 反对

使用道具 举报

44

主题

1413

帖子

4085

积分

4K家园VIP

Rank: 9Rank: 9Rank: 9

积分
4085
发表于 2021-10-11 15:31:53 | 显示全部楼层
1v1飘过
回复 支持 反对

使用道具 举报

62

主题

1451

帖子

4233

积分

4K家园VIP

Rank: 9Rank: 9Rank: 9

积分
4233
发表于 2021-10-11 17:29:18 | 显示全部楼层
看着好像不错
回复 支持 反对

使用道具 举报

1

主题

1272

帖子

3832

积分

4K家园VIP

Rank: 9Rank: 9Rank: 9

积分
3832
发表于 2021-10-11 20:42:24 | 显示全部楼层
好像还可以
回复 支持 反对

使用道具 举报

您需要登录后才可以回帖 登录 | 立即注册

本版积分规则

精彩图文
Archiver|手机版|TAG|Sitemap|新帖|专题|联系我们:邮箱: 4kjia.com@gmail.com   

4k家园   ©2019