穷友记 / Brassic (2021) / 第三季全8集 / 4K高清下载

[复制链接]

28

主题

32

帖子

330

积分

版主

Rank: 7Rank: 7Rank: 7

积分
330
 楼主| 发表于 2021-10-12 16:02:23 | 显示全部楼层 |阅读模式
QQ图片20211012155300_副本.png

◎译  名 穷友记 第三季/废男/穷鬼一箩筐/穷卵打板
◎片  名 Brassic Season 3
◎年  代 2021
◎产  地 英国
◎类  别 剧情/喜剧
◎语  言 英语
◎上映日期 2021-08(英国)
◎IMDb评分  8.3/10 from 5946 users
◎IMDb链接  https://www.imdb.com/title/tt9174582/
◎豆瓣评分 8.5/10 from 99 users
◎豆瓣链接 https://douban.com/subject/34967031/
◎集  数 8
◎主  演 约瑟夫·吉尔根 Joseph Gilgun
       米歇尔·基根 Michelle Keegan
       戴米恩·莫隆尼 Damien Molony
       史蒂文哈特利 Steven Hartley
       亚伦·赫弗南 Aaron Heffernan
       瑞恩·山普森 Ryan Sampson
       帕斯·萨克勒 Parth Thakerar



◎简  介


  Sky One宣布续订《#穷友记# Brassic》第三季。

General

Complete name                  : E:\Brassic.S03E01.INTERNAL.2160p.AUHDTV.x265-FaiLED.mkv
Format                         : Matroska
Format version                 : Version 4
File size                      : 3.77 GiB
Duration                       : 42 min 56 s
Overall bit rate               : 12.6 Mb/s
Encoded date                   : UTC 2021-10-10 14:21:20
Writing application            : mkvmerge v23.0.0 ('The Bride Said No') 64-bit
Writing library                : libebml v1.3.6 + libmatroska v1.4.9
IsTruncated                    : Yes

Video
ID                             : 1
Format                         : HEVC
Format/Info                    : High Efficiency Video Coding
Format profile                 : Main 10@L5.2@High
Codec ID                       : V_MPEGH/ISO/HEVC
Duration                       : 42 min 56 s
Bit rate                       : 11.9 Mb/s
Width                          : 3 840 pixels
Height                         : 2 160 pixels
Display aspect ratio           : 16:9
Frame rate mode                : Constant
Frame rate                     : 50.000 FPS
Color space                    : YUV
Chroma subsampling             : 4:2:0 (Type 0)
Bit depth                      : 10 bits
Bits/(Pixel*Frame)             : 0.029
Stream size                    : 3.58 GiB (95%)
Writing library                : x265 3.5+15-4bf31dc15:[Windows][GCC 10.3.0][64 bit] 10bit
Encoding settings              : cpuid=1111039 / frame-threads=4 / numa-pools=16 / wpp / no-pmode / no-pme / no-psnr / no-ssim / log-level=2 / input-csp=1 / input-res=3840x2160 / interlace=0 / total-frames=0 / level-idc=52 / high-tier=1 / uhd-bd=0 / ref=4 / no-allow-non-conformance / repeat-headers / annexb / aud / no-eob / no-eos / hrd / info / hash=0 / no-temporal-layers / open-gop / min-keyint=25 / keyint=250 / gop-lookahead=0 / bframes=4 / b-adapt=2 / b-pyramid / bframe-bias=0 / rc-lookahead=25 / lookahead-slices=4 / scenecut=40 / no-hist-scenecut / radl=0 / no-splice / no-intra-refresh / ctu=64 / min-cu-size=8 / rect / no-amp / max-tu-size=32 / tu-inter-depth=1 / tu-intra-depth=1 / limit-tu=0 / rdoq-level=2 / dynamic-rd=0.00 / no-ssim-rd / signhide / no-tskip / nr-intra=0 / nr-inter=0 / no-constrained-intra / strong-intra-smoothing / max-merge=3 / limit-refs=3 / limit-modes / me=3 / subme=3 / merange=57 / temporal-mvp / no-frame-dup / no-hme / weightp / no-weightb / no-analyze-src-pics / deblock=0:0 / sao / no-sao-non-deblock / rd=4 / selective-sao=4 / no-early-skip / rskip / no-fast-intra / no-tskip-fast / no-cu-lossless / no-b-intra / no-splitrd-skip / rdpenalty=0 / psy-rd=2.00 / psy-rdoq=1.00 / no-rd-refine / no-lossless / cbqpoffs=0 / crqpoffs=0 / rc=crf / crf=16.0 / qcomp=0.60 / qpstep=4 / stats-write=0 / stats-read=0 / vbv-maxrate=240000 / vbv-bufsize=240000 / vbv-init=0.9 / min-vbv-fullness=50.0 / max-vbv-fullness=80.0 / crf-max=0.0 / crf-min=0.0 / ipratio=1.40 / pbratio=1.30 / aq-mode=2 / aq-strength=1.00 / cutree / zone-count=0 / no-strict-cbr / qg-size=32 / no-rc-grain / qpmax=69 / qpmin=0 / no-const-vbv / sar=1 / overscan=0 / videoformat=5 / range=0 / colorprim=1 / transfer=1 / colormatrix=1 / chromaloc=1 / chromaloc-top=0 / chromaloc-bottom=0 / display-window=0 / cll=0,0 / min-luma=0 / max-luma=1023 / log2-max-poc-lsb=8 / vui-timing-info / vui-hrd-info / slices=1 / no-opt-qp-pps / no-opt-ref-list-length-pps / no-multi-pass-opt-rps / scenecut-bias=0.05 / hist-threshold=0.03 / no-opt-cu-delta-qp / no-aq-motion / no-hdr10 / no-hdr10-opt / no-dhdr10-opt / no-idr-recovery-sei / analysis-reuse-level=0 / analysis-save-reuse-level=0 / analysis-load-reuse-level=0 / scale-factor=0 / refine-intra=0 / refine-inter=0 / refine-mv=1 / refine-ctu-distortion=0 / no-limit-sao / ctu-info=0 / no-lowpass-dct / refine-analysis-type=0 / copy-pic=1 / max-ausize-factor=1.0 / no-dynamic-refine / no-single-sei / no-hevc-aq / no-svt / no-field / qp-adaptation-range=1.00 / scenecut-aware-qp=0conformance-window-offsets / right=0 / bottom=0 / decoder-max-rate=0 / no-vbv-live-multi-pass
Default                        : Yes
Forced                         : No
Color range                    : Limited
Color primaries                : BT.709
Transfer characteristics       : BT.709
Matrix coefficients            : BT.709

Audio
ID                             : 2
Format                         : AC-3
Format/Info                    : Audio Coding 3
Commercial name                : Dolby Digital
Codec ID                       : A_AC3
Duration                       : 42 min 56 s
Bit rate mode                  : Constant
Bit rate                       : 384 kb/s
Channel(s)                     : 2 channels
Channel layout                 : L R
Sampling rate                  : 48.0 kHz
Frame rate                     : 31.250 FPS (1536 SPF)
Compression mode               : Lossy
Delay relative to video        : -570 ms
Stream size                    : 118 MiB (3%)
Service kind                   : Complete Main
Default                        : Yes
Forced                         : No
下载地址

游客,如果您要查看本帖隐藏内容请回复










上一篇:拉字至上:Q世代 (2021) / 第二季全10集 / 4K高清下载
下一篇:现实以外(内嵌中字)/Just Beyond (2021) /第一季全8集 / 4K高清下载
回复

使用道具 举报

2

主题

1290

帖子

3724

积分

4K家园VIP

Rank: 9Rank: 9Rank: 9

积分
3724
发表于 2021-10-12 16:02:34 | 显示全部楼层
看起来不错
回复 支持 反对

使用道具 举报

0

主题

1289

帖子

3883

积分

4K家园VIP

Rank: 9Rank: 9Rank: 9

积分
3883
发表于 2021-10-13 04:55:31 来自手机 | 显示全部楼层
什么东西啊
回复 支持 反对

使用道具 举报

3

主题

1251

帖子

3775

积分

4K家园VIP

Rank: 9Rank: 9Rank: 9

积分
3775
发表于 2021-10-13 05:18:23 来自手机 | 显示全部楼层
路过
回复 支持 反对

使用道具 举报

0

主题

1317

帖子

3965

积分

4K家园VIP

Rank: 9Rank: 9Rank: 9

积分
3965
发表于 2021-10-13 09:14:24 | 显示全部楼层
LZ是天才,坚定完毕
回复 支持 反对

使用道具 举报

4

主题

1252

帖子

3776

积分

4K家园VIP

Rank: 9Rank: 9Rank: 9

积分
3776
发表于 2021-10-13 14:31:41 | 显示全部楼层
非常好,顶一下
回复 支持 反对

使用道具 举报

您需要登录后才可以回帖 登录 | 立即注册

本版积分规则

精彩图文
Archiver|手机版|TAG|Sitemap|新帖|专题|联系我们:邮箱: 4kjia.com@gmail.com   

4k家园   ©2019