[国家地理] [4K国家地理] 中世纪城堡 (2021) [2160P/MKV/340MB]

[复制链接]

2607

主题

2941

帖子

2万

积分

超级版主

Rank: 8Rank: 8

积分
24482
 楼主| 发表于 2021-10-15 21:06:51 | 显示全部楼层 |阅读模式

中世纪城堡 (2021) WEBRip 2160p.mkv_20211012_162656.868.jpg 中世纪城堡 (2021) WEBRip 2160p.mkv_20211012_162704.667.jpg 中世纪城堡 (2021) WEBRip 2160p.mkv_20211012_162711.419.jpg 中世纪城堡 (2021) WEBRip 2160p.mkv_20211012_162717.410.jpg 中世纪城堡 (2021) WEBRip 2160p.mkv_20211012_162727.027.jpg 中世纪城堡 (2021) WEBRip 2160p.mkv_20211012_162733.875.jpg

关于信息
标题:中世纪城堡
发行年: 2021
国家:意大利
时长: 00 : 02 : 48
类型: 种
导演:加里亚诺安克尔

关于影片:

        这是一个选择的城堡,我相机拍下我的MAVIC空气2在过去的一年。所有这些都位于距离马斯特里赫特 2.5 小时车程的地方。
General
Complete name                  : E:\中世纪城堡 (2021) WEBRip 2160p.mkv
Format                         : Matroska
Format version                 : Version 4
File size                      : 341 MiB
Duration                       : 2 min 48 s
Overall bit rate               : 16.9 Mb/s
Encoded date                   : UTC 2021-10-08 16:47:00
Writing application            : mkvmerge v61.0.0 ('So') 64-bit
Writing library                : libebml v1.4.2 + libmatroska v1.6.4 / Lavf58.29.100

Video
ID                             : 1
Format                         : VP9
Codec ID                       : V_VP9
Duration                       : 2 min 48 s
Bit rate                       : 16.8 Mb/s
Width                          : 3 840 pixels
Height                         : 2 160 pixels
Display aspect ratio           : 16:9
Frame rate mode                : Constant
Frame rate                     : 29.970 (30000/1001) FPS
Color space                    : YUV
Bits/(Pixel*Frame)             : 0.068
Stream size                    : 338 MiB (99%)
Default                        : Yes
Forced                         : No
Color range                    : Limited
Color primaries                : BT.709
Transfer characteristics       : BT.709
Matrix coefficients            : BT.709

Audio
ID                             : 2
Format                         : Opus
Codec ID                       : A_OPUS
Duration                       : 2 min 48 s
Bit rate                       : 141 kb/s
Channel(s)                     : 2 channels
Channel layout                 : L R
Sampling rate                  : 48.0 kHz
Frame rate                     : 50.002 FPS (960 SPF)
Bit depth                      : 32 bits
Compression mode               : Lossy
Stream size                    : 2.83 MiB (1%)
Default                        : Yes
Forced                         : No
下载地址


****此区域为收费内容****    需支付 15 金币后可查看立即购买







上一篇:[4K国家地理] 海洋里的生物 [珍藏版] (2021) [2160P/MKV/1.02GB]
下一篇:[4K国家地理] 索契 (2021) [2160P/MKV/214MB]
回复

使用道具 举报

3

主题

1568

帖子

4298

积分

4K家园VIP

Rank: 9Rank: 9Rank: 9

积分
4298
发表于 2021-10-15 21:06:55 来自手机 | 显示全部楼层
前排顶起
回复 支持 反对

使用道具 举报

0

主题

6576

帖子

1万

积分

4K家园VIP

Rank: 9Rank: 9Rank: 9

积分
15360
发表于 2021-10-15 21:32:04 | 显示全部楼层
意大利中世紀城堡4k
回复 支持 反对

使用道具 举报

51

主题

1528

帖子

4396

积分

4K家园VIP

Rank: 9Rank: 9Rank: 9

积分
4396
发表于 2021-10-16 02:07:59 | 显示全部楼层
感谢分享
回复 支持 反对

使用道具 举报

0

主题

1268

帖子

3824

积分

4K家园VIP

Rank: 9Rank: 9Rank: 9

积分
3824
发表于 2021-10-16 16:46:33 | 显示全部楼层
向楼主学习
回复 支持 反对

使用道具 举报

3

主题

1259

帖子

3799

积分

4K家园VIP

Rank: 9Rank: 9Rank: 9

积分
3799
发表于 2021-10-17 14:46:17 | 显示全部楼层
我也顶起出售广告位
回复 支持 反对

使用道具 举报

39

主题

1440

帖子

4114

积分

4K家园VIP

Rank: 9Rank: 9Rank: 9

积分
4114
发表于 2021-10-18 00:56:15 来自手机 | 显示全部楼层
大人,此事必有蹊跷!
回复 支持 反对

使用道具 举报

您需要登录后才可以回帖 登录 | 立即注册

本版积分规则

精彩图文
Archiver|手机版|TAG|Sitemap|新帖|专题|联系我们:邮箱: 4kjia.com@gmail.com   

4k家园   ©2019