[国家地理] [4K国家地理] 意大利之旅 (2021) [2160P/MKV/342MB]

[复制链接]

2664

主题

2998

帖子

2万

积分

超级版主

Rank: 8Rank: 8

积分
25020
 楼主| 发表于 2021-12-9 12:20:02 | 显示全部楼层 |阅读模式
本帖最后由 叽里呱啦 于 2021-12-9 12:20 编辑

意大利之旅 (2021) WEBRip 2160p.mkv_20211012_163815.226.jpg 意大利之旅 (2021) WEBRip 2160p.mkv_20211012_163828.794.jpg 意大利之旅 (2021) WEBRip 2160p.mkv_20211012_163837.122.jpg 意大利之旅 (2021) WEBRip 2160p.mkv_20211012_163850.355.jpg 意大利之旅 (2021) WEBRip 2160p.mkv_20211012_163956.515.jpg 意大利之旅 (2021) WEBRip 2160p.mkv_20211012_164004.347.jpg

影片信息
片名:意大利之旅
上映年份: 2021
国家:意大利
时长: 00 : 03 : 19
类型: 物种
导演: Galliano Anker

关于电影:

         该视频将带您从托斯卡纳迷人的佛罗伦萨市到翁布里亚的马尔莫尔瀑布以及介于两者之间的其他几个地方。

General
Complete name                  : E:\意大利之旅 (2021) WEBRip 2160p.mkv
Format                         : Matroska
Format version                 : Version 4
File size                      : 343 MiB
Duration                       : 3 min 19 s
Overall bit rate               : 14.4 Mb/s
Encoded date                   : UTC 2021-10-08 17:23:22
Writing application            : mkvmerge v61.0.0 ('So') 64-bit
Writing library                : libebml v1.4.2 + libmatroska v1.6.4 / Lavf58.29.100

Video
ID                             : 1
Format                         : VP9
Codec ID                       : V_VP9
Duration                       : 3 min 19 s
Bit rate                       : 14.2 Mb/s
Width                          : 3 840 pixels
Height                         : 2 160 pixels
Display aspect ratio           : 16:9
Frame rate mode                : Constant
Frame rate                     : 29.970 (30000/1001) FPS
Color space                    : YUV
Bits/(Pixel*Frame)             : 0.057
Stream size                    : 340 MiB (99%)
Default                        : Yes
Forced                         : No
Color range                    : Limited
Color primaries                : BT.709
Transfer characteristics       : BT.709
Matrix coefficients            : BT.709

Audio
ID                             : 2
Format                         : Opus
Codec ID                       : A_OPUS
Duration                       : 3 min 19 s
Bit rate                       : 129 kb/s
Channel(s)                     : 2 channels
Channel layout                 : L R
Sampling rate                  : 48.0 kHz
Frame rate                     : 50.001 FPS (960 SPF)
Bit depth                      : 32 bits
Compression mode               : Lossy
Stream size                    : 3.07 MiB (1%)
Default                        : Yes
Forced                         : No

下载地址

****此区域为收费内容****    需支付 15 金币后可查看立即购买










上一篇:[4K国家地理] 中世纪城堡 (2021) [2160P/MKV/340MB]
下一篇:[4K国家地理] 索契 (2021) [2160P/MKV/214MB]
回复

使用道具 举报

40

主题

1502

帖子

4302

积分

4K家园VIP

Rank: 9Rank: 9Rank: 9

积分
4302
发表于 2021-12-9 12:20:06 | 显示全部楼层
楼猪V5啊
回复 支持 反对

使用道具 举报

1

主题

1347

帖子

3847

积分

4K家园VIP

Rank: 9Rank: 9Rank: 9

积分
3847
发表于 2021-12-9 12:20:06 | 显示全部楼层
多谢楼主分享
回复 支持 反对

使用道具 举报

1

主题

1355

帖子

3911

积分

4K家园VIP

Rank: 9Rank: 9Rank: 9

积分
3911
发表于 2021-12-9 12:20:06 | 显示全部楼层
打酱油的人拉,回复下赚取积分
回复 支持 反对

使用道具 举报

0

主题

1321

帖子

3977

积分

4K家园VIP

Rank: 9Rank: 9Rank: 9

积分
3977
发表于 2021-12-9 12:20:06 | 显示全部楼层
LZ敢整点更有创意的不?兄弟们等着围观捏~
回复 支持 反对

使用道具 举报

0

主题

7280

帖子

1万

积分

4K家园VIP

Rank: 9Rank: 9Rank: 9

积分
16651
发表于 2021-12-9 12:21:17 | 显示全部楼层
太好啦&萬分感謝版主的無私發佈分享%
回复 支持 反对

使用道具 举报

1

主题

1311

帖子

3765

积分

4K家园VIP

Rank: 9Rank: 9Rank: 9

积分
3765
发表于 2021-12-9 19:22:25 | 显示全部楼层
为保住菊花,这个一定得回复!
回复 支持 反对

使用道具 举报

0

主题

2

帖子

23

积分

新手上路

Rank: 1

积分
23
发表于 2021-12-28 15:14:59 | 显示全部楼层
这个内容超想看的
回复 支持 反对

使用道具 举报

您需要登录后才可以回帖 登录 | 立即注册

本版积分规则

精彩图文
Archiver|手机版|TAG|Sitemap|新帖|专题|联系我们:邮箱: 4kjia.com@gmail.com   

4k家园   ©2019