[国家地理] [4K国家地理] 世界环旅 (2021) [2160P/MKV/1.07GB]

[复制链接]

2607

主题

2941

帖子

2万

积分

超级版主

Rank: 8Rank: 8

积分
24482
 楼主| 发表于 2021-10-31 20:20:44 | 显示全部楼层 |阅读模式

世界环旅(1.07GB) (2021) WEBRip 2160p.mkv_20211012_165037.738.jpg 世界环旅(1.07GB) (2021) WEBRip 2160p.mkv_20211012_165058.210.jpg 世界环旅(1.07GB) (2021) WEBRip 2160p.mkv_20211012_165118.073.jpg 世界环旅(1.07GB) (2021) WEBRip 2160p.mkv_20211012_165152.978.jpg 世界环旅(1.07GB) (2021) WEBRip 2160p.mkv_20211012_165214.394.jpg 世界环旅(1.07GB) (2021) WEBRip 2160p.mkv_20211012_165233.937.jpg

影片信息
标题:旅游
上映时间: 2021
国家:马来西亚
持续时间: 00:11 : 28
类型: 物种
导演: Lucas Veuve

关于影片:

        我从泰国、马来西亚、印度尼西亚、印度、日本、坦桑尼亚。

General
Complete name                  : E:\世界环旅(1.07GB) (2021) WEBRip 2160p.mkv
Format                         : Matroska
Format version                 : Version 4
File size                      : 1.07 GiB
Duration                       : 11 min 28 s
Overall bit rate               : 13.3 Mb/s
Encoded date                   : UTC 2021-10-10 16:45:05
Writing application            : mkvmerge v62.0.0 ('Apollo') 64-bit
Writing library                : libebml v1.4.2 + libmatroska v1.6.4

Video
ID                             : 1
Format                         : AVC
Format/Info                    : Advanced Video Codec
Format profile                 : Baseline@L5.1
Format settings                : 1 Ref Frames
Format settings, CABAC         : No
Format settings, Reference fra : 1 frame
Format settings, GOP           : M=1, N=30
Muxing mode                    : Container profile=Baseline@3.0
Codec ID                       : V_MPEG4/ISO/AVC
Duration                       : 11 min 28 s
Bit rate                       : 13.2 Mb/s
Width                          : 3 840 pixels
Height                         : 2 160 pixels
Display aspect ratio           : 16:9
Frame rate mode                : Constant
Frame rate                     : 25.000 FPS
Standard                       : Component
Color space                    : RGB
Chroma subsampling             : 4:2:0
Bit depth                      : 8 bits
Scan type                      : Progressive
Bits/(Pixel*Frame)             : 0.063
Stream size                    : 1.05 GiB (99%)
Default                        : Yes
Forced                         : No
Color range                    : Limited
Matrix coefficients            : Identity

Audio
ID                             : 2
Format                         : AAC LC
Format/Info                    : Advanced Audio Codec Low Complexity
Codec ID                       : A_AAC-2
Duration                       : 11 min 28 s
Bit rate                       : 128 kb/s
Channel(s)                     : 2 channels
Channel layout                 : L R
Sampling rate                  : 48.0 kHz
Frame rate                     : 46.875 FPS (1024 SPF)
Compression mode               : Lossy
Stream size                    : 10.5 MiB (1%)
Default                        : Yes
Forced                         : No
下载地址   

****此区域为收费内容****    需支付 15 金币后可查看立即购买







上一篇:[4K国家地理] 索契 (2021) [2160P/MKV/214MB]
下一篇:[4K国家地理] 科西嘉 (2021) [2160P/MKV/385MB]
回复

使用道具 举报

42

主题

1477

帖子

4243

积分

4K家园VIP

Rank: 9Rank: 9Rank: 9

积分
4243
发表于 2021-10-31 20:20:49 | 显示全部楼层
撸过
回复 支持 反对

使用道具 举报

0

主题

6576

帖子

1万

积分

4K家园VIP

Rank: 9Rank: 9Rank: 9

积分
15360
发表于 2021-10-31 20:50:02 | 显示全部楼层
世界環旅4k
回复 支持 反对

使用道具 举报

3

主题

1251

帖子

3771

积分

4K家园VIP

Rank: 9Rank: 9Rank: 9

积分
3771
发表于 2021-11-1 19:23:47 来自手机 | 显示全部楼层
这个资源我记得是一套的,楼主还有没有
回复 支持 反对

使用道具 举报

54

主题

1441

帖子

4167

积分

4K家园VIP

Rank: 9Rank: 9Rank: 9

积分
4167
发表于 2021-11-6 22:53:44 | 显示全部楼层
没明白
回复 支持 反对

使用道具 举报

3

主题

1577

帖子

4371

积分

4K家园VIP

Rank: 9Rank: 9Rank: 9

积分
4371
发表于 2021-11-7 07:29:16 | 显示全部楼层
秀起来~
回复 支持 反对

使用道具 举报

2

主题

1123

帖子

3391

积分

4K家园VIP

Rank: 9Rank: 9Rank: 9

积分
3391
发表于 2021-11-9 15:12:38 | 显示全部楼层
顶起出售广告位
回复 支持 反对

使用道具 举报

0

主题

663

帖子

2311

积分

注册会员

Rank: 2

积分
2311
发表于 6 天前 | 显示全部楼层
谢谢分享   谢谢分享   
回复 支持 反对

使用道具 举报

您需要登录后才可以回帖 登录 | 立即注册

本版积分规则

精彩图文
Archiver|手机版|TAG|Sitemap|新帖|专题|联系我们:邮箱: 4kjia.com@gmail.com   

4k家园   ©2019