[国家地理] [4K国家地理] 科西嘉 (2021) [2160P/MKV/385MB]

[复制链接]

2607

主题

2941

帖子

2万

积分

超级版主

Rank: 8Rank: 8

积分
24482
 楼主| 发表于 2021-10-27 17:09:29 | 显示全部楼层 |阅读模式
本帖最后由 最爱4K哟 于 2021-10-27 21:31 编辑


科西嘉(385MB) (2021) WEBRip 2160p.mkv_20211012_165821.993.jpg 科西嘉(385MB) (2021) WEBRip 2160p.mkv_20211012_165836.706.jpg 科西嘉(385MB) (2021) WEBRip 2160p.mkv_20211012_165848.658.jpg 科西嘉(385MB) (2021) WEBRip 2160p.mkv_20211012_165919.497.jpg 科西嘉(385MB) (2021) WEBRip 2160p.mkv_20211012_165932.369.jpg 科西嘉(385MB) (2021) WEBRip 2160p.mkv_20211012_165944.177.jpg
关于信息
标题:科西嘉
发行年: 2021
国家:法国
工作室: Drone My Life
持续时间: 00:05 : 20
类型: 种

关于影片:

       科西嘉岛是地中海的一个小岛,著名以其独特的外形其舒适的沿海城市,茂密的森林和岩石山峰,最高的其中是蒙特辛托......

General
Complete name                  : E:\科西嘉(385MB) (2021) WEBRip 2160p.mkv
Format                         : Matroska
Format version                 : Version 4
File size                      : 385 MiB
Duration                       : 5 min 20 s
Overall bit rate               : 10.1 Mb/s
Encoded date                   : UTC 2021-10-10 14:44:23
Writing application            : mkvmerge v61.0.0 ('So') 64-bit
Writing library                : libebml v1.4.2 + libmatroska v1.6.4 / Lavf58.29.100

Video
ID                             : 1
Format                         : VP9
Codec ID                       : V_VP9
Duration                       : 5 min 20 s
Bit rate                       : 9 960 kb/s
Width                          : 3 840 pixels
Height                         : 1 600 pixels
Display aspect ratio           : 2.40:1
Frame rate mode                : Constant
Frame rate                     : 29.970 (30000/1001) FPS
Color space                    : YUV
Bits/(Pixel*Frame)             : 0.054
Stream size                    : 380 MiB (99%)
Default                        : Yes
Forced                         : No
Color range                    : Limited
Color primaries                : BT.709
Transfer characteristics       : BT.709
Matrix coefficients            : BT.709

Audio
ID                             : 2
Format                         : AAC LC
Format/Info                    : Advanced Audio Codec Low Complexity
Codec ID                       : A_AAC-2
Duration                       : 5 min 20 s
Bit rate                       : 128 kb/s
Channel(s)                     : 2 channels
Channel layout                 : L R
Sampling rate                  : 44.1 kHz
Frame rate                     : 43.066 FPS (1024 SPF)
Compression mode               : Lossy
Stream size                    : 4.89 MiB (1%)
Default                        : Yes
Forced                         : No

下载地址

****此区域为收费内容****    需支付 15 金币后可查看立即购买







上一篇:[4K国家地理] 世界环旅 (2021) [2160P/MKV/1.07GB]
下一篇:[4K国家地理] Kamyanets-Podilsky (2021) [2160P/MKV/310MB]
回复

使用道具 举报

0

主题

1345

帖子

3897

积分

4K家园VIP

Rank: 9Rank: 9Rank: 9

积分
3897
发表于 2021-10-27 17:09:33 来自手机 | 显示全部楼层
都不知道说的啥
回复 支持 反对

使用道具 举报

0

主题

6576

帖子

1万

积分

4K家园VIP

Rank: 9Rank: 9Rank: 9

积分
15360
发表于 2021-10-27 18:34:49 | 显示全部楼层
法國科西嘉島4k
回复 支持 反对

使用道具 举报

2

主题

1699

帖子

4633

积分

4K家园VIP

Rank: 9Rank: 9Rank: 9

积分
4633
发表于 2021-10-28 18:27:39 | 显示全部楼层
路过的帮顶
回复 支持 反对

使用道具 举报

2

主题

1318

帖子

3820

积分

4K家园VIP

Rank: 9Rank: 9Rank: 9

积分
3820
发表于 2021-10-29 10:04:06 | 显示全部楼层
打酱油的人拉,回复下赚取积分
回复 支持 反对

使用道具 举报

5

主题

1338

帖子

3856

积分

4K家园VIP

Rank: 9Rank: 9Rank: 9

积分
3856
发表于 2021-10-29 13:08:27 | 显示全部楼层
确实不错,顶先
回复 支持 反对

使用道具 举报

6

主题

1609

帖子

4415

积分

中级会员

Rank: 4

积分
4415
发表于 2021-10-29 20:06:28 来自手机 | 显示全部楼层
路过 帮顶 嘿嘿
回复 支持 反对

使用道具 举报

您需要登录后才可以回帖 登录 | 立即注册

本版积分规则

精彩图文
Archiver|手机版|TAG|Sitemap|新帖|专题|联系我们:邮箱: 4kjia.com@gmail.com   

4k家园   ©2019