[国家地理] [4K国家地理] Kamyanets-Podilsky (2021) [2160P/MKV/310MB]

[复制链接]

2567

主题

2891

帖子

2万

积分

超级版主

Rank: 8Rank: 8

积分
24049
 楼主| 发表于 2021-10-13 10:23:33 | 显示全部楼层 |阅读模式

Kamyanets-Podilsky (2021) WEBRip 2160p.mkv_20211012_170325.161.jpg Kamyanets-Podilsky (2021) WEBRip 2160p.mkv_20211012_170345.033.jpg Kamyanets-Podilsky (2021) WEBRip 2160p.mkv_20211012_170350.625.jpg Kamyanets-Podilsky (2021) WEBRip 2160p.mkv_20211012_170357.369.jpg Kamyanets-Podilsky (2021) WEBRip 2160p.mkv_20211012_170410.737.jpg Kamyanets-Podilsky (2021) WEBRip 2160p.mkv_20211012_170423.474.jpg

影片信息
片名: Kamyanets-Podolsky
上映年份: 2021
国家:乌克兰
工作室: FLYUA
时间:02分57秒
类型: 物种

影片简介:

     飞越美丽城市 Kamyanets-Podolsky 的城堡和气球,借助体积音效设计沉浸在大气中。

General
Unique ID                      : 22633783211645761302920828360777009342 (0x11071BAB6819932A57860523CDD008BE)
Complete name                  : E:\4K@电影 4K@MV\Kamyanets-Podilsky (2021) WEBRip 2160p.mkv
Format                         : Matroska
Format version                 : Version 4
File size                      : 311 MiB
Duration                       : 2 min 57 s
Overall bit rate               : 14.7 Mb/s
Encoded date                   : UTC 2021-10-10 14:09:13
Writing application            : mkvmerge v61.0.0 ('So') 64-bit
Writing library                : libebml v1.4.2 + libmatroska v1.6.4 / Lavf58.29.100

Video
ID                             : 1
Format                         : VP9
Codec ID                       : V_VP9
Duration                       : 2 min 57 s
Bit rate                       : 14.6 Mb/s
Width                          : 3 840 pixels
Height                         : 2 160 pixels
Display aspect ratio           : 16:9
Frame rate mode                : Constant
Frame rate                     : 29.970 FPS
Color space                    : YUV
Bits/(Pixel*Frame)             : 0.059
Stream size                    : 308 MiB (99%)
Default                        : Yes
Forced                         : No
Color range                    : Limited
Color primaries                : BT.709
Transfer characteristics       : BT.709
Matrix coefficients            : BT.709

Audio
ID                             : 2
Format                         : AAC LC
Format/Info                    : Advanced Audio Codec Low Complexity
Codec ID                       : A_AAC-2
Duration                       : 2 min 57 s
Bit rate                       : 128 kb/s
Channel(s)                     : 2 channels
Channel layout                 : L R
Sampling rate                  : 44.1 kHz
Frame rate                     : 43.066 FPS (1024 SPF)
Compression mode               : Lossy
Stream size                    : 2.70 MiB (1%)
Default                        : Yes
Forced                         : No
下载地址


****此区域为收费内容****    需支付 15 金币后可查看立即购买







上一篇:[4K国家地理] 中世纪城堡 (2021) [2160P/MKV/340MB]
回复

使用道具 举报

39

主题

1430

帖子

4084

积分

4K家园VIP

Rank: 9Rank: 9Rank: 9

积分
4084
发表于 2021-10-13 10:23:38 | 显示全部楼层
路过
回复 支持 反对

使用道具 举报

0

主题

5991

帖子

1万

积分

4K家园VIP

Rank: 9Rank: 9Rank: 9

积分
14278
发表于 2021-10-13 10:36:45 | 显示全部楼层
烏克蘭飛越美麗城市4k
回复 支持 反对

使用道具 举报

0

主题

1668

帖子

4606

积分

4K家园VIP

Rank: 9Rank: 9Rank: 9

积分
4606
发表于 2021-10-13 13:55:26 来自手机 | 显示全部楼层
鄙视楼下的顶帖没我快,哈哈
回复 支持 反对

使用道具 举报

2

主题

1626

帖子

4464

积分

4K家园VIP

Rank: 9Rank: 9Rank: 9

积分
4464
发表于 2021-10-13 18:57:44 | 显示全部楼层
4K家园资源最近貌似越来越多了
回复 支持 反对

使用道具 举报

1

主题

1622

帖子

4522

积分

4K家园VIP

Rank: 9Rank: 9Rank: 9

积分
4522
发表于 2021-10-13 19:07:29 | 显示全部楼层
差评
回复 支持 反对

使用道具 举报

52

主题

1482

帖子

4284

积分

4K家园VIP

Rank: 9Rank: 9Rank: 9

积分
4284
发表于 2021-10-13 20:35:54 | 显示全部楼层
你们要是有4K资源记得分享,别小气
回复 支持 反对

使用道具 举报

0

主题

1190

帖子

3762

积分

中级会员

Rank: 4

积分
3762
发表于 昨天 11:26 | 显示全部楼层
谢无私分享精神!
回复 支持 反对

使用道具 举报

您需要登录后才可以回帖 登录 | 立即注册

本版积分规则

精彩图文
Archiver|手机版|TAG|Sitemap|新帖|专题|联系我们:邮箱: 4kjia.com@gmail.com   

4k家园   ©2019