现实以外(内嵌中字)/Just Beyond (2021) /第一季全8集 / 4K高清下载

[复制链接]

28

主题

32

帖子

330

积分

版主

Rank: 7Rank: 7Rank: 7

积分
330
 楼主| 发表于 2021-10-13 22:03:35 | 显示全部楼层 |阅读模式
本帖最后由 最爱4K哟 于 2021-10-19 20:52 编辑

p2681228066_副本.jpg

◎译  名 现实以外/超越
◎片  名 Just Beyond
◎年  代 2021
◎产  地 美国
◎类  别 喜剧/恐怖/奇幻
◎语  言 英语
◎上映日期 2021-10-13(美国)
◎IMDb评分  7.3/10 from 16 users
◎IMDb链接  https://www.imdb.com/title/tt12286434/
◎豆瓣评分 /10 from 0 users
◎豆瓣链接 https://douban.com/subject/35064886/
◎集  数 8
◎导  演 马克·韦布 Marc Webb
◎编  剧 赛斯·格雷厄姆-史密斯 Seth Grahame-Smith / R·L·斯坦 R.L. Stine
◎主  演 麦肯娜·格瑞丝 Mckenna Grace
       加布里埃尔·贝特曼 Gabriel Bateman
       瑞琪·琳德赫姆 Riki Lindhome
       亨利·托马斯 Henry Thomas
       伊扎贝拉·维多维奇 Izabela Vidovic
       葛晓洁 Christine Ko
       肯尼·阿方索 Kenny Alfonso
       夏洛林·阿莫亚 Charlene Amoia
       赛勒斯·阿诺德 Cyrus Arnold
       马尔科姆·巴雷特 Malcolm Barrett
       帕维什·齐纳 Parvesh Cheena
       大卫·德弗里斯 David de Vries
       Darryl Dillard Darryl Dillard
       凯萨琳·戴尔 Catherine Dyer
       杰克·戈尔 Jack Gore
       蒂姆·海德克 Tim Heidecker
       以利沙 亨葛 Elisha Henig
       汉娜·凯普尔 Hannah Kepple
       威尔·金德拉克 Will Kindrachuk
       桑德拉·埃利斯·拉弗蒂 Sandra Ellis Lafferty
       Lindsay Lamb Lindsay Lamb
       大卫·伦格尔 David Lengel
       艾米丽·玛丽·帕尔默 Emily Marie Palmer


◎简  介


  Disney+宣布以8集首季直接预订《超越 Just Beyond》,这部诗选恐怖喜剧改编自BOOM!的畅销视觉文学,原作作者是R.L. Stine(就是《鸡皮疙瘩 Goosebumps》的作者)。改编版会由Seth Grahame-Smith负责。
General
Complete name                  : H:\Just.Beyond.S01E01.Leave.Them.Kids.Alone.2160p.WEB-DL.DDP5.1.Atmos.HDR.H.265-FLUX.mkv
Format                         : Matroska
Format version                 : Version 4
File size                      : 4.55 GiB
Duration                       : 28 min 16 s
Overall bit rate               : 23.0 Mb/s
Encoded date                   : UTC 2021-10-13 07:20:20
Writing application            : mkvmerge v61.0.0 ('So') 64-bit
Writing library                : libebml v1.4.2 + libmatroska v1.6.4

Video
ID                             : 1
Format                         : HEVC
Format/Info                    : High Efficiency Video Coding
Format profile                 : Main 10@L5@Main
Codec ID                       : V_MPEGH/ISO/HEVC
Duration                       : 28 min 16 s
Bit rate                       : 21.8 Mb/s
Width                          : 3 840 pixels
Height                         : 2 160 pixels
Display aspect ratio           : 16:9
Frame rate mode                : Constant
Frame rate                     : 23.976 (24000/1001) FPS
Color space                    : YUV
Chroma subsampling             : 4:2:0
Bit depth                      : 10 bits
Bits/(Pixel*Frame)             : 0.110
Stream size                    : 4.31 GiB (95%)
Writing library                : x265 3.5:[Linux][GCC 7.5.0][64 bit] 10bit
Encoding settings              : cpuid=1111039 / frame-threads=1 / wpp / no-pmode / no-pme / no-psnr / no-ssim / log-level=2 / input-csp=1 / input-res=3840x2160 / interlace=0 / total-frames=0 / level-idc=50 / high-tier=0 / uhd-bd=0 / ref=3 / no-allow-non-conformance / repeat-headers / annexb / no-aud / no-hrd / info / hash=0 / no-temporal-layers / no-open-gop / min-keyint=48 / keyint=48 / gop-lookahead=0 / bframes=2 / b-adapt=0 / b-pyramid / bframe-bias=0 / rc-lookahead=48 / lookahead-slices=8 / scenecut=0 / hist-scenecut=0 / radl=0 / no-splice / no-intra-refresh / ctu=32 / min-cu-size=8 / no-rect / no-amp / max-tu-size=16 / tu-inter-depth=2 / tu-intra-depth=2 / limit-tu=0 / rdoq-level=1 / dynamic-rd=0.00 / no-ssim-rd / signhide / no-tskip / nr-intra=0 / nr-inter=0 / no-constrained-intra / no-strong-intra-smoothing / max-merge=3 / limit-refs=1 / no-limit-modes / me=1 / subme=2 / merange=44 / temporal-mvp / no-frame-dup / no-hme / weightp / no-weightb / no-analyze-src-pics / deblock=0:0 / no-sao / no-sao-non-deblock / rd=4 / selective-sao=0 / early-skip / rskip / no-fast-intra / no-tskip-fast / no-cu-lossless / b-intra / no-splitrd-skip / rdpenalty=1 / psy-rd=1.60 / psy-rdoq=5.00 / no-rd-refine / no-lossless / cbqpoffs=0 / crqpoffs=0 / rc=abr / bitrate=23000 / qcomp=0.75 / qpstep=4 / stats-write=0 / stats-read=0 / vbv-maxrate=25000 / vbv-bufsize=25000 / vbv-init=0.9 / ipratio=1.40 / pbratio=1.30 / aq-mode=3 / aq-strength=1.00 / no-cutree / zone-count=0 / no-strict-cbr / qg-size=32 / no-rc-grain / qpmax=69 / qpmin=0 / no-const-vbv / sar=1 / overscan=0 / videoformat=5 / range=0 / colorprim=9 / transfer=16 / colormatrix=9 / chromaloc=0 / display-window=0 / cll=0,0 / min-luma=0 / max-luma=1023 / log2-max-poc-lsb=8 / vui-timing-info / vui-hrd-info / slices=1 / no-opt-qp-pps / no-opt-ref-list-length-pps / no-multi-pass-opt-rps / scenecut-bias=0.00 / hist-threshold=0.01 / no-opt-cu-delta-qp / no-aq-motion / no-hdr10 / hdr10-opt / no-dhdr10-opt / no-idr-recovery-sei / analysis-reuse-level=0 / analysis-save-reuse-level=0 / analysis-load-reuse-level=0 / scale-factor=0 / refine-intra=0 / refine-inter=0 / refine-mv=1 / refine-ctu-distortion=0 / no-limit-sao / ctu-info=0 / no-lowpass-dct / refine-analysis-type=0 / copy-pic=1 / max-ausize-factor=1.0 / no-dynamic-refine / no-single-sei / no-hevc-aq / no-svt / no-field / qp-adaptation-range=1.00 / no-scenecut-aware-qpconformance-window-offsets / right=0 / bottom=0
Default                        : Yes
Forced                         : No
Color range                    : Limited
Color primaries                : BT.2020
Transfer characteristics       : PQ
Matrix coefficients            : BT.2020 non-constant

Audio
ID                             : 2
Format                         : E-AC-3 JOC
Format/Info                    : Enhanced AC-3 with Joint Object Coding
Commercial name                : Dolby Digital Plus with Dolby Atmos
Codec ID                       : A_EAC3
Duration                       : 28 min 16 s
Bit rate mode                  : Constant
Bit rate                       : 768 kb/s
Channel(s)                     : 6 channels
Channel layout                 : L R C LFE Ls Rs
Sampling rate                  : 48.0 kHz
Frame rate                     : 31.250 FPS (1536 SPF)
Compression mode               : Lossy
Stream size                    : 155 MiB (3%)
Language                       : English
Service kind                   : Complete Main
Default                        : Yes
Forced                         : No
Complexity index               : 16
Number of dynamic objects      : 15
Bed channel count              : 1 channel
Bed channel configuration      : LFE

Text #1
ID                             : 3
Format                         : UTF-8
Codec ID                       : S_TEXT/UTF8
Codec ID/Info                  : UTF-8 Plain Text
Language                       : English
Default                        : No
Forced                         : No

Text #2
ID                             : 4
Format                         : UTF-8
Codec ID                       : S_TEXT/UTF8
Codec ID/Info                  : UTF-8 Plain Text
Title                          : SDH
Language                       : English
Default                        : No
Forced                         : No

Text #3
ID : 5
Format : UTF-8
Codec ID : S_TEXT/UTF8
Codec ID/Info : UTF-8 Plain Text
Language : 中文
Default : No
Forced : No

Text #4
ID                             : 6
Format                         : UTF-8
Codec ID                       : S_TEXT/UTF8
Codec ID/Info                  : UTF-8 Plain Text
Language                       : Danish
Default                        : No
Forced                         : No

Text #5
ID                             : 7
Format                         : UTF-8
Codec ID                       : S_TEXT/UTF8
Codec ID/Info                  : UTF-8 Plain Text
Language                       : German
Default                        : No
Forced                         : No

Text #6
ID                             : 8
Format                         : UTF-8
Codec ID                       : S_TEXT/UTF8
Codec ID/Info                  : UTF-8 Plain Text
Title                          : Español
Language                       : Spanish
Default                        : No
Forced                         : No

Text #7
ID                             : 9
Format                         : UTF-8
Codec ID                       : S_TEXT/UTF8
Codec ID/Info                  : UTF-8 Plain Text
Title                          : Español (Latinoamericano)
Language                       : Spanish
Default                        : No
Forced                         : No

Text #8
ID                             : 10
Format                         : UTF-8
Codec ID                       : S_TEXT/UTF8
Codec ID/Info                  : UTF-8 Plain Text
Language                       : French
Default                        : No
Forced                         : No

Text #9
ID                             : 11
Format                         : UTF-8
Codec ID                       : S_TEXT/UTF8
Codec ID/Info                  : UTF-8 Plain Text
Language                       : Italian
Default                        : No
Forced                         : No

Text #10
ID                             : 12
Format                         : UTF-8
Codec ID                       : S_TEXT/UTF8
Codec ID/Info                  : UTF-8 Plain Text
Language                       : Japanese
Default                        : No
Forced                         : No

Text #11
ID                             : 13
Format                         : UTF-8
Codec ID                       : S_TEXT/UTF8
Codec ID/Info                  : UTF-8 Plain Text
Language                       : Korean
Default                        : No
Forced                         : No

Text #12
ID                             : 14
Format                         : UTF-8
Codec ID                       : S_TEXT/UTF8
Codec ID/Info                  : UTF-8 Plain Text
Language                       : Dutch
Default                        : No
Forced                         : No

Text #13
ID                             : 15
Format                         : UTF-8
Codec ID                       : S_TEXT/UTF8
Codec ID/Info                  : UTF-8 Plain Text
Language                       : Norwegian
Default                        : No
Forced                         : No

Text #14
ID                             : 16
Format                         : UTF-8
Codec ID                       : S_TEXT/UTF8
Codec ID/Info                  : UTF-8 Plain Text
Language                       : Polish
Default                        : No
Forced                         : No

Text #15
ID                             : 17
Format                         : UTF-8
Codec ID                       : S_TEXT/UTF8
Codec ID/Info                  : UTF-8 Plain Text
Title                          : Português
Language                       : Portuguese
Default                        : No
Forced                         : No

Text #16
ID                             : 18
Format                         : UTF-8
Codec ID                       : S_TEXT/UTF8
Codec ID/Info                  : UTF-8 Plain Text
Title                          : Português (Brasil)
Language                       : Portuguese
Default                        : No
Forced                         : No

Text #17
ID                             : 19
Format                         : UTF-8
Codec ID                       : S_TEXT/UTF8
Codec ID/Info                  : UTF-8 Plain Text
Language                       : Finnish
Default                        : No
Forced                         : No

Text #18
ID                             : 20
Format                         : UTF-8
Codec ID                       : S_TEXT/UTF8
Codec ID/Info                  : UTF-8 Plain Text
Language                       : Swedish
Default                        : No
Forced                         : No

Menu
00:00:04.004                   : Intro
00:00:35.994                   : Main
00:27:43.997                   : Credits

下载地址

游客,如果您要查看本帖隐藏内容请回复

游客,如果您要查看本帖隐藏内容请回复







上一篇:穷友记 / Brassic (2021) / 第三季全8集 / 4K高清下载
下一篇:科米的规则 / The Comey Rule (2020) /第一季全2集 / 4K高清下载
回复

使用道具 举报

48

主题

1542

帖子

4438

积分

4K家园VIP

Rank: 9Rank: 9Rank: 9

积分
4438
发表于 2021-10-13 22:03:49 | 显示全部楼层
锄禾日当午,发帖真辛苦。谁知坛中餐,帖帖皆辛苦!
回复 支持 反对

使用道具 举报

0

主题

2

帖子

24

积分

4K家园VIP

Rank: 9Rank: 9Rank: 9

积分
24
发表于 2021-10-13 23:17:58 | 显示全部楼层
真是不错呀
回复 支持 反对

使用道具 举报

0

主题

1

帖子

48

积分

新手上路

Rank: 1

积分
48
发表于 2021-10-13 23:18:32 | 显示全部楼层
超喜欢麦肯娜·格瑞丝,感谢楼主分享
回复 支持 反对

使用道具 举报

1

主题

1373

帖子

4133

积分

4K家园VIP

Rank: 9Rank: 9Rank: 9

积分
4133
发表于 2021-10-13 23:29:16 | 显示全部楼层
回复 支持 反对

使用道具 举报

0

主题

1293

帖子

3889

积分

4K家园VIP

Rank: 9Rank: 9Rank: 9

积分
3889
发表于 2021-10-14 01:39:14 | 显示全部楼层
多谢楼主分享
回复 支持 反对

使用道具 举报

0

主题

5991

帖子

1万

积分

4K家园VIP

Rank: 9Rank: 9Rank: 9

积分
14278
发表于 2021-10-14 08:06:08 | 显示全部楼层
太好啦&萬分感謝版主的無私發佈分享%
回复 支持 反对

使用道具 举报

2

主题

1113

帖子

3361

积分

4K家园VIP

Rank: 9Rank: 9Rank: 9

积分
3361
发表于 2021-10-15 02:56:28 | 显示全部楼层
非常好,顶一下
回复 支持 反对

使用道具 举报

0

主题

5991

帖子

1万

积分

4K家园VIP

Rank: 9Rank: 9Rank: 9

积分
14278
发表于 2021-10-15 08:39:04 | 显示全部楼层
太好啦&萬分感謝版主的無私發佈分享%
回复 支持 反对

使用道具 举报

1

主题

1333

帖子

3845

积分

4K家园VIP

Rank: 9Rank: 9Rank: 9

积分
3845
发表于 2021-10-15 14:47:15 | 显示全部楼层
前排支持下了哦~
回复 支持 反对

使用道具 举报

您需要登录后才可以回帖 登录 | 立即注册

本版积分规则

精彩图文
Archiver|手机版|TAG|Sitemap|新帖|专题|联系我们:邮箱: 4kjia.com@gmail.com   

4k家园   ©2019