[4Kjia独享4K资源] 警察局 / Copshop (2021) 4K高清版本下载11.71GB

[复制链接]

956

主题

1017

帖子

8614

积分

超级版主

Rank: 8Rank: 8

积分
8614
 楼主| 发表于 2021-10-14 12:51:07 | 显示全部楼层 |阅读模式
本帖最后由 最爱4K哟 于 2021-10-14 15:18 编辑

QQ图片20211014123839_副本.png

◎译  名 警察局 / 正义陷落 / 高玩殺手
◎片  名 Copshop
◎年  代 2021
◎产  地 美国
◎类  别 动作 / 惊悚
◎语  言 英语
◎上映日期 2021-09-17(美国)
◎IMDb评分  6.5/10 from 2778 users
◎IMDb链接  https://www.imdb.com/title/tt5748448
◎豆瓣评分 6.5/10 from 65 users
◎豆瓣链接 https://movie.douban.com/subject/35197314/
◎片  长 107分钟
◎导  演 乔·卡纳汉
◎编  剧 Kurt McLeod / 乔·卡纳汉 / 马克·威廉姆斯
◎演  员 弗兰克·格里罗                   杰拉德·巴特勒
                   托比·哈斯
                   亚历克西斯·拉奥特
                   泰特·弗莱彻
                   瑞恩·欧南
                   何塞·巴勃罗·坎蒂略
                   基思·雅各
                   Armida Lopez
                   大卫·沃恩
                   Yvette Fazio-Delaney
                   凯维·莱曼-默塞尤
                   Vanita Kalra / Dez
                   Marco Morales
                   马歇尔·库克
                   克里斯托弗·迈克尔·霍利
                   罗伯特·沃克·布兰乔德
                   特雷西·邦纳


◎简  介

        狡猾的骗子泰迪·穆雷托(Frank Grillo饰)在内华达沙漠中大喊大叫,身披子弹的皇冠维克,策划了一个绝望的计划,以躲避致命杀手鲍勃·维迪克(杰拉德·巴特勒饰):他用吸盘拳打新手警官瓦莱丽·杨(亚历克西斯的声音更大),将自己逮捕并关进小镇警察局。但监狱不能长期保护穆雷托。维迪克计划以自己的方式被拘留,在附近的牢房里等待时机,直到完成任务。当一名竞争刺客(托比·胡斯)的到来点燃了全面的混乱,越来越多的威胁迫使维迪克发挥创造力,如果他想完成任务,逃离爆炸性的局面。
General

Complete name                  : H:\4K@电影Copshop.2021.2160p.AMZN.WEB-DL.DDP5.1.HDR.HEVC-CMRG.mkv
Format                         : Matroska
Format version                 : Version 4
File size                      : 11.7 GiB
Duration                       : 1 h 47 min
Overall bit rate               : 15.5 Mb/s
Encoded date                   : UTC 2021-10-14 02:52:36
Writing application            : mkvmerge v60.0.0 ('Are We Copies?') 64-bit
Writing library                : libebml v1.4.2 + libmatroska v1.6.4
IsTruncated                    : Yes

Video
ID                             : 1
Format                         : HEVC
Format/Info                    : High Efficiency Video Coding
Format profile                 : Main 10@L5@Main
HDR format                     : SMPTE ST 2094 App 4, Version 1, HDR10+ Profile B compatible
Codec ID                       : V_MPEGH/ISO/HEVC
Duration                       : 1 h 47 min
Bit rate                       : 14.6 Mb/s
Width                          : 3 840 pixels
Height                         : 1 600 pixels
Display aspect ratio           : 2.40:1
Frame rate mode                : Constant
Frame rate                     : 23.976 (24000/1001) FPS
Color space                    : YUV
Chroma subsampling             : 4:2:0
Bit depth                      : 10 bits
Bits/(Pixel*Frame)             : 0.099
Stream size                    : 11.0 GiB (94%)
Default                        : Yes
Forced                         : No
Color range                    : Limited
Color primaries                : BT.2020
Transfer characteristics       : PQ
Matrix coefficients            : BT.2020 non-constant
Mastering display color primar : BT.2020
Mastering display luminance    : min: 0.0050 cd/m2, max: 1000 cd/m2
Maximum Content Light Level    : 999 cd/m2
Maximum Frame-Average Light Le : 213 cd/m2

Audio
ID                             : 2
Format                         : E-AC-3
Format/Info                    : Enhanced AC-3
Commercial name                : Dolby Digital Plus
Codec ID                       : A_EAC3
Duration                       : 1 h 47 min
Bit rate mode                  : Constant
Bit rate                       : 640 kb/s
Channel(s)                     : 6 channels
Channel layout                 : L R C LFE Ls Rs
Sampling rate                  : 48.0 kHz
Frame rate                     : 31.250 FPS (1536 SPF)
Compression mode               : Lossy
Stream size                    : 493 MiB (4%)
Title                          : English
Language                       : English
Service kind                   : Complete Main
Default                        : No
Forced                         : No

Text #1
ID                             : 3
Format                         : UTF-8
Codec ID                       : S_TEXT/UTF8
Codec ID/Info                  : UTF-8 Plain Text
Title                          : English [SDH]
Language                       : English
Default                        : No
Forced                         : No

Text #2
ID                             : 4
Format                         : UTF-8
Codec ID                       : S_TEXT/UTF8
Codec ID/Info                  : UTF-8 Plain Text
Title                          : English
Language                       : English
Default                        : No
Forced                         : No

迅雷下载资源速度为零,资源敏感或被和谐时,推荐使用qBittorrent等无限速下载软件,有条件的推荐115更好的下载软件!

下载地址

****此区域为收费内容****    需支付 9 金币后可查看立即购买

游客,如果您要查看本帖隐藏内容请回复







上一篇:纪录片《鲨鱼小队/Shark.Squad》 (2017)第一季全3集/4K高清下载
下一篇:16击 / 16 Shots (2019) 4K高清版本下载10.50GB
回复

使用道具 举报

956

主题

1017

帖子

8614

积分

超级版主

Rank: 8Rank: 8

积分
8614
 楼主| 发表于 2021-10-14 13:06:15 | 显示全部楼层
Harone7038.jpg Harone11173.jpg Harone17057.jpg Harone17584.jpg Harone23630.jpg Harone29548.jpg
回复 支持 反对

使用道具 举报

13

主题

1167

帖子

3473

积分

4K家园VIP

Rank: 9Rank: 9Rank: 9

积分
3473
发表于 2021-10-14 12:51:11 | 显示全部楼层
前排顶起
回复 支持 反对

使用道具 举报

0

主题

6036

帖子

1万

积分

4K家园VIP

Rank: 9Rank: 9Rank: 9

积分
14371
发表于 2021-10-14 13:18:24 | 显示全部楼层
太好啦&萬分感謝版主的無私發佈分享%
回复 支持 反对

使用道具 举报

0

主题

1129

帖子

3401

积分

4K家园VIP

Rank: 9Rank: 9Rank: 9

积分
3401
发表于 2021-10-14 18:36:44 | 显示全部楼层
非常好,顶一下
回复 支持 反对

使用道具 举报

0

主题

3

帖子

12

积分

新手上路

Rank: 1

积分
12
发表于 2021-10-14 22:23:55 来自手机 | 显示全部楼层
eeeeeeeedxxxddxxxxx
回复 支持 反对

使用道具 举报

0

主题

11

帖子

45

积分

新手上路

Rank: 1

积分
45
发表于 2021-10-15 13:10:13 | 显示全部楼层

Where is Administration 4kjia.com?

Can I contact admin??
I'ts important.
Thanks.
回复 支持 反对

使用道具 举报

0

主题

11

帖子

45

积分

新手上路

Rank: 1

积分
45
发表于 2021-10-15 18:13:06 | 显示全部楼层

Where is Administration 4kjia.com?

Where is moderator??
It is important.
Regards.
回复 支持 反对

使用道具 举报

0

主题

78

帖子

5210

积分

高级会员

Rank: 3Rank: 3

积分
5210
发表于 2021-10-16 11:28:29 | 显示全部楼层

谢谢楼主发片
回复 支持 反对

使用道具 举报

53

主题

1509

帖子

4299

积分

4K家园VIP

Rank: 9Rank: 9Rank: 9

积分
4299
发表于 2021-10-16 16:25:26 | 显示全部楼层
围观 围观 沙发在哪里!!!
回复 支持 反对

使用道具 举报

您需要登录后才可以回帖 登录 | 立即注册

本版积分规则

精彩图文
Archiver|手机版|TAG|Sitemap|新帖|专题|联系我们:邮箱: 4kjia.com@gmail.com   

4k家园   ©2019