[4K电影] 16击 / 16 Shots (2019) 4K高清版本下载10.50GB

[复制链接]

13

主题

1166

帖子

3470

积分

4K家园VIP

Rank: 9Rank: 9Rank: 9

积分
3470
 楼主| 发表于 7 天前 | 显示全部楼层 |阅读模式
QQ图片20211014215713_副本.png

◎译  名 16击
◎片  名 16 Shots
◎年  代 2019
◎产  地 美国
◎类  别 剧情
◎语  言 英语
◎上映日期 2019-06-14(美国)
◎IMDb评分  7.1/10 from 463 users
◎IMDb链接  https://www.imdb.com/title/tt10331828/
◎豆瓣评分 /10 from 0 users
◎豆瓣链接 https://movie.douban.com/subject/34438978/
◎片  长 99分钟
◎导  演 里克·罗利
◎编  剧 里克·罗利
◎主  演 安妮塔·阿尔瓦雷斯
                   迪安·安杰洛
                   阿尔玛·贝尼特斯
                   威廉·卡洛威
                   帕特·卡姆登
                   查琳·卡拉瑟斯
                   金·福克斯
                   克雷格·福特森
                   丹·赫伯特
                   马文·亨特


◎简  介



       2014年,芝加哥警官杰森·范·戴克(Jason Van Dyke)枪杀17岁的拉泉·麦克唐纳(Laquan McDonald)以及随后的掩盖行为。在警方最初宣布枪击事件是正当的之后,记者和活动人士争相发布事件的录像,在社区要求伸张正义之际,芝加哥警察局和当地芝加哥政府官员陷入了动荡。
Video
ID : 1
Format : HEVC
Format/Info : High Efficiency Video Coding
Format profile : Main@L5@Main
Codec ID : V_MPEGH/ISO/HEVC
Duration : 1 h 39 min
Bit rate : 14.7 Mb/s
Width : 3 840 pixels
Height : 2 160 pixels
Display aspect ratio : 16:9
Frame rate mode : Constant
Frame rate : 23.976 (24000/1001/189150) FPS
Color space : YUV
Chroma subsampling : 4:2:0
Bit depth : 8 bits
Bits/(Pixel*Frame) : 0.074
Stream size : 10.2 GiB (97%)
Writing library : x265 2.8hy:[Linux][GCC 7.5.0][64 bit] 8bit
Encoding settings : cpuid=1111039 / frame-threads=1 / no-wpp / no-pmode / no-pme / no-psnr / no-ssim / log-level=2 / input-csp=1 / input-res=3840x2160 / interlace=0 / total-frames=0 / level-idc=0 / high-tier=1 / uhd-bd=0 / ref=4 / no-allow-non-conformance / repeat-headers / annexb / aud / hrd / info / hash=0 / no-temporal-layers / no-open-gop / min-keyint=48 / keyint=48 / gop-lookahead=0 / bframes=4 / b-adapt=2 / b-pyramid / bframe-bias=0 / rc-lookahead=48 / lookahead-slices=4 / scenecut=0 / radl=0 / no-intra-refresh / ctu=64 / min-cu-size=8 / rect / no-amp / max-tu-size=32 / tu-inter-depth=1 / tu-intra-depth=1 / limit-tu=0 / rdoq-level=2 / dynamic-rd=0.00 / no-ssim-rd / signhide / no-tskip / nr-intra=100 / nr-inter=200 / no-constrained-intra / strong-intra-smoothing / max-merge=3 / limit-refs=3 / limit-modes / me=3 / subme=3 / merange=57 / temporal-mvp / weightp / no-weightb / no-analyze-src-pics / deblock=0:0 / no-sao / no-sao-non-deblock / rd=4 / no-early-skip / no-rskip / no-fast-intra / no-tskip-fast / no-cu-lossless / no-b-intra / no-splitrd-skip / rdpenalty=0 / psy-rd=0.00 / psy-rdoq=10.00 / no-rd-refine / no-lossless / cbqpoffs=0 / crqpoffs=0 / rc=abr / bitrate=15000 / qcomp=0.60 / qpstep=1 / stats-write=0 / stats-read=2 / cplxblur=20.0 / qblur=0.5 / vbv-maxrate=18000 / vbv-bufsize=12000 / vbv-init=0.6 / vbv-end=0.6 / vbv-end-fr-adj=0.0 / ipratio=1.10 / pbratio=1.00 / aq-mode=0 / aq-strength=0.00 / no-cutree / zone-count=0 / no-strict-cbr / qg-size=32 / rc-grain / qpmax=69 / qpmin=0 / const-vbv / sar=0 / overscan=0 / videoformat=5 / range=0 / colorprim=1 / transfer=1 / colormatrix=1 / chromaloc=0 / display-window=0 / max-cll=0,0 / min-luma=0 / max-luma=255 / log2-max-poc-lsb=8 / vui-timing-info / vui-hrd-info / no-concatenation / slices=1 / no-opt-qp-pps / no-opt-ref-list-length-pps / no-multi-pass-opt-rps / scenecut-bias=0.05 / no-opt-cu-delta-qp / no-aq-motion / no-hdr / no-hdr-opt / no-dhdr10-opt / no-idr-recovery-sei / analysis-reuse-level=5 / scale-factor=0 / refine-intra=0 / refine-inter=0 / refine-mv=0 / no-limit-sao / ctu-info=0 / no-lowpass-dct / refine-mv-type=0 / copy-pic=1 / max-ausize-factor=1.0 / no-dynamic-refine / no-single-sei
Language : English
Default : Yes
Forced : No
Color range : Limited
Color primaries : BT.709
Transfer characteristics : BT.709
Matrix coefficients : BT.709

Audio
ID : 2
Format : AC-3
Format/Info : Audio Coding 3
Commercial name : Dolby Digital
Codec ID : A_AC3
Duration : 1 h 39 min
Bit rate mode : Constant
Bit rate : 384 kb/s
Channel(s) : 6 channels
Channel layout : L R C LFE Ls Rs
Sampling rate : 48.0 kHz
Frame rate : 31.250 FPS (1536 SPF)
Compression mode : Lossy
Stream size : 274 MiB (3%)
Language : English
Service kind : Complete Main
Default : Yes
Forced : No

Text
ID : 3
Format : UTF-8
Codec ID : S_TEXT/UTF8
Codec ID/Info : UTF-8 Plain Text
Duration : 1 h 38 min
Bit rate : 87 b/s
Count of elements : 1709
Stream size : 62.7 KiB (0%)
Language : English
Default : No
Forced : No

下载地址


游客,如果您要查看本帖隐藏内容请回复










上一篇:警察局 / Copshop (2021) 4K高清版本下载11.71GB
下一篇:无声的抵抗 / Resistance (2020) 4K高清版本下载14.81GB
回复

使用道具 举报

52

主题

1481

帖子

4281

积分

4K家园VIP

Rank: 9Rank: 9Rank: 9

积分
4281
发表于 7 天前 来自手机 | 显示全部楼层
谢谢楼主
回复 支持 反对

使用道具 举报

53

主题

1185

帖子

3621

积分

4K家园VIP

Rank: 9Rank: 9Rank: 9

积分
3621
发表于 6 天前 | 显示全部楼层
在撸一遍。。。
回复 支持 反对

使用道具 举报

0

主题

5940

帖子

1万

积分

4K家园VIP

Rank: 9Rank: 9Rank: 9

积分
14188
发表于 6 天前 | 显示全部楼层
太好啦&萬分感謝版主的無私發佈分享%
回复 支持 反对

使用道具 举报

0

主题

11

帖子

45

积分

新手上路

Rank: 1

积分
45
发表于 6 天前 | 显示全部楼层

Where is Administration 4kjia.com?

Where is moderator??
I'ts important.
Regards.
回复 支持 反对

使用道具 举报

4

主题

1186

帖子

3586

积分

4K家园VIP

Rank: 9Rank: 9Rank: 9

积分
3586
发表于 6 天前 | 显示全部楼层
高手云集 果断围观
回复 支持 反对

使用道具 举报

1

主题

1301

帖子

3733

积分

4K家园VIP

Rank: 9Rank: 9Rank: 9

积分
3733
发表于 5 天前 来自手机 | 显示全部楼层
怎么这么大,希望我电视能看啊
回复 支持 反对

使用道具 举报

0

主题

11

帖子

45

积分

新手上路

Rank: 1

积分
45
发表于 5 天前 | 显示全部楼层

Where is Administration 4kjia.com?

Where is moderator??
It is about advertisement on your website.
Regards.
回复 支持 反对

使用道具 举报

0

主题

11

帖子

45

积分

新手上路

Rank: 1

积分
45
发表于 5 天前 | 显示全部楼层

Where is Administration 4kjia.com?

Where is moderator??
I'ts important.
Regards.
回复 支持 反对

使用道具 举报

1

主题

1617

帖子

4467

积分

4K家园VIP

Rank: 9Rank: 9Rank: 9

积分
4467
发表于 4 天前 | 显示全部楼层
看帖要回,回帖才健康,在踩踩,楼主辛苦了!
回复 支持 反对

使用道具 举报

您需要登录后才可以回帖 登录 | 立即注册

本版积分规则

精彩图文
Archiver|手机版|TAG|Sitemap|新帖|专题|联系我们:邮箱: 4kjia.com@gmail.com   

4k家园   ©2019