[4K电影] 无声的抵抗 / Resistance (2020) 4K高清版本下载14.81GB

[复制链接]

942

主题

1003

帖子

8494

积分

超级版主

Rank: 8Rank: 8

积分
8494
 楼主| 发表于 7 天前 | 显示全部楼层 |阅读模式
QQ图片20211014222058_副本.png

◎译  名 无声的抵抗/抵抗/无声救援(台)/无声的反抗
◎片  名 Resistance
◎年  代 2020
◎产  地 法国,美国,德国,英国
◎类  别 剧情 / 传记 / 历史 / 战争
◎语  言 英语
◎上映日期 2020-03-08(迈阿密电影节) / 2020-03-27(美国网络)
◎IMDb评分  6.4/10 from 5984 users
◎IMDb链接  https://www.imdb.com/title/tt6914122/
◎豆瓣评分 6.7/10 from 2030 users
◎豆瓣链接 https://movie.douban.com/subject/27050130/
◎片  长 121分钟
◎导  演 乔纳森·雅库博维奇 Jonathan Jakubowicz
◎编  剧 乔纳森·雅库博维奇 Jonathan Jakubowicz
◎主  演 杰西·艾森伯格 Jesse Eisenberg
      艾德·哈里斯 Ed Harris
      克蕾曼丝·波西 Clémence Poésy
      马提亚斯·施维赫夫 Matthias Schweigh?fer
      埃德加·拉米雷兹 édgar Ramírez
      费利克斯·莫阿蒂 Félix Moati
      盖佐·罗赫里格 Géza R?hrig
      卡尔·马克维斯 Karl Markovics
      维卡·克里克斯 Vica Kerekes
      贝拉·拉姆齐 Bella Ramsey
      艾丽西娅·冯·里特贝格 Alicia von Rittberg
      阿尔恩特·施韦林·索瑞 Arndt Schwering-Sohnrey




◎简  介

  从启发迈克杰克逊的“太空漫步”到创造Bip小丑的经典形象,法国传奇默剧大师马歇·马叟(Marcel Marceau)对流行文化的影响空前深远。而他年轻时一段鲜为人知的地下战士经历,也如他的艺术一样非凡伟大。

  二战时法国被占领期间,马歇通过他善于伪造的天赋以及幽默感,在许多生死攸关的地下抗战任务中起到了至关重要的作用,他与兄弟们并肩作战,成功从纳粹手里解救了无数孩子,将他们穿过阿尔卑斯山送到瑞士。马歇的英雄行为也感动和激励了成千上万的人们。
Video
ID : 1
Format : HEVC
Format/Info : High Efficiency Video Coding
Format profile : Main@L5@Main
Codec ID : V_MPEGH/ISO/HEVC
Duration : 2 h 1 min
Bit rate : 14.5 Mb/s
Width : 3 840 pixels
Height : 2 160 pixels
Display aspect ratio : 16:9
Frame rate mode : Constant
Frame rate : 23.976 (24000/1001/189150) FPS
Color space : YUV
Chroma subsampling : 4:2:0
Bit depth : 8 bits
Bits/(Pixel*Frame) : 0.073
Stream size : 12.2 GiB (83%)
Writing library : x265 3.4hy:[Linux][GCC 7.5.0][64 bit] 8bit
Encoding settings : cpuid=1111039 / frame-threads=2 / wpp / no-pmode / no-pme / no-psnr / no-ssim / log-level=2 / input-csp=1 / input-res=3840x2160 / interlace=0 / total-frames=0 / level-idc=0 / high-tier=1 / uhd-bd=0 / ref=4 / no-allow-non-conformance / repeat-headers / annexb / aud / hrd / info / hash=0 / no-temporal-layers / no-open-gop / min-keyint=48 / keyint=48 / gop-lookahead=0 / bframes=4 / b-adapt=2 / b-pyramid / bframe-bias=0 / rc-lookahead=48 / lookahead-slices=4 / scenecut=0 / hist-scenecut=0 / radl=0 / no-splice / no-intra-refresh / ctu=64 / min-cu-size=8 / rect / no-amp / max-tu-size=32 / tu-inter-depth=1 / tu-intra-depth=1 / limit-tu=0 / rdoq-level=2 / dynamic-rd=0.00 / no-ssim-rd / signhide / no-tskip / nr-intra=100 / nr-inter=200 / no-constrained-intra / strong-intra-smoothing / max-merge=3 / limit-refs=3 / limit-modes / me=3 / subme=3 / merange=57 / temporal-mvp / no-frame-dup / no-hme / weightp / no-weightb / no-analyze-src-pics / deblock=0:0 / no-sao / no-sao-non-deblock / rd=4 / selective-sao=0 / no-early-skip / no-rskip / no-fast-intra / no-tskip-fast / no-cu-lossless / no-b-intra / no-splitrd-skip / rdpenalty=0 / psy-rd=0.00 / psy-rdoq=10.00 / no-rd-refine / no-lossless / cbqpoffs=0 / crqpoffs=0 / rc=abr / bitrate=15000 / qcomp=0.60 / qpstep=1 / stats-write=0 / stats-read=2 / cplxblur=20.0 / qblur=0.5 / vbv-maxrate=18000 / vbv-bufsize=12000 / vbv-init=0.6 / vbv-end=0.6 / vbv-end-fr-adj=0.0 / ipratio=1.10 / pbratio=1.00 / aq-mode=0 / aq-strength=0.00 / no-cutree / zone-count=0 / no-strict-cbr / qg-size=32 / rc-grain / qpmax=69 / qpmin=0 / const-vbv / sar=0 / overscan=0 / videoformat=5 / range=0 / colorprim=1 / transfer=1 / colormatrix=1 / chromaloc=0 / display-window=0 / cll=0,0 / min-luma=0 / max-luma=255 / log2-max-poc-lsb=8 / vui-timing-info / vui-hrd-info / no-concatenation / slices=1 / no-opt-qp-pps / no-opt-ref-list-length-pps / no-multi-pass-opt-rps / scenecut-bias=0.05 / hist-threshold=0.01 / no-opt-cu-delta-qp / no-aq-motion / no-hdr10 / no-hdr10-opt / no-dhdr10-opt / no-idr-recovery-sei / analysis-reuse-level=0 / analysis-save-reuse-level=0 / analysis-load-reuse-level=0 / scale-factor=0 / refine-intra=0 / refine-inter=0 / refine-mv=1 / refine-ctu-distortion=0 / no-limit-sao / ctu-info=0 / no-lowpass-dct / refine-analysis-type=0 / copy-pic=1 / max-ausize-factor=1.0 / no-dynamic-refine / no-single-sei / no-hevc-aq / no-svt / no-field / qp-adaptation-range=1.00 / no-scenecut-aware-qpconformance-window-offsets / right=0 / bottom=0 / decoder-max-rate=0
Language : English
Default : Yes
Forced : No
Color range : Limited
Color primaries : BT.709
Transfer characteristics : BT.709
Matrix coefficients : BT.709

Audio #1
ID : 2
Format : DTS XLL
Format/Info : Digital Theater Systems
Commercial name : DTS-HD Master Audio
Codec ID : A_DTS
Duration : 2 h 1 min
Bit rate mode : Variable
Bit rate : 2 612 kb/s
Channel(s) : 6 channels
Channel layout : C L R Ls Rs LFE
Sampling rate : 48.0 kHz
Frame rate : 93.750 FPS (512 SPF)
Bit depth : 24 bits
Compression mode : Lossless
Delay relative to video : 5 ms
Stream size : 2.21 GiB (15%)
Title : DTS-HD MA 5.1
Language : English
Default : Yes
Forced : No

Audio #2
ID : 3
Format : AC-3
Format/Info : Audio Coding 3
Commercial name : Dolby Digital
Codec ID : A_AC3
Duration : 2 h 1 min
Bit rate mode : Constant
Bit rate : 384 kb/s
Channel(s) : 6 channels
Channel layout : L R C LFE Ls Rs
Sampling rate : 48.0 kHz
Frame rate : 31.250 FPS (1536 SPF)
Compression mode : Lossy
Stream size : 333 MiB (2%)
Language : English
Service kind : Complete Main
Default : No
Forced : No

Text #1
ID : 4
Format : UTF-8
Codec ID : S_TEXT/UTF8
Codec ID/Info : UTF-8 Plain Text
Duration : 1 h 59 min
Bit rate : 38 b/s
Count of elements : 1252
Stream size : 33.9 KiB (0%)
Title : SRT
Language : English
Default : Yes
Forced : No

Text #2
ID : 5
Format : PGS
Muxing mode : zlib
Codec ID : S_HDMV/PGS
Codec ID/Info : Picture based subtitle format used on BDs/HD-DVDs
Duration : 1 h 59 min
Bit rate : 20.9 kb/s
Count of elements : 1838
Stream size : 17.8 MiB (0%)
Language : English
Default : No
Forced : No

Text #3
ID : 6
Format : PGS
Muxing mode : zlib
Codec ID : S_HDMV/PGS
Codec ID/Info : Picture based subtitle format used on BDs/HD-DVDs
Duration : 1 h 55 min
Bit rate : 21.6 kb/s
Count of elements : 1711
Stream size : 17.9 MiB (0%)
Language : Spanish
Default : No
Forced : No

Menu
00:00:00.000 : Chapter 1
00:10:10.193 : Chapter 2
00:22:19.964 : Chapter 3
00:32:50.302 : Chapter 4
00:40:27.175 : Chapter 5
00:51:29.920 : Chapter 6
01:00:17.239 : Chapter 7
01:12:19.669 : Chapter 8
01:21:58.038 : Chapter 9
01:33:52.377 : Chapter 10
01:46:57.119 : Chapter 11
01:55:20.330 : Chapter 12

迅雷下载资源速度为零,资源敏感或被和谐时,推荐使用qBittorrent等无限速下载软件,有条件的推荐115更好的下载软件


下载地址

无声的抵抗(14.81GB)Resistance.2020.2160p.WEB-DL.x265.8bit.SDR.DTS-HD.MA.5.1-NO.torrent (19.16 KB, 售价: 9 金币)

上一篇:16击 / 16 Shots (2019) 4K高清版本下载10.50GB
下一篇:木偶大闹鬼豪宅(内封中字) (2021) 4K高清版本下载7.87GB
回复

使用道具 举报

1

主题

1286

帖子

3680

积分

4K家园VIP

Rank: 9Rank: 9Rank: 9

积分
3680
发表于 7 天前 | 显示全部楼层
发发呆,回回帖,工作结束~
回复 支持 反对

使用道具 举报

0

主题

5940

帖子

1万

积分

4K家园VIP

Rank: 9Rank: 9Rank: 9

积分
14188
发表于 6 天前 | 显示全部楼层
太好啦&萬分感謝版主的無私發佈分享%
回复 支持 反对

使用道具 举报

0

主题

1242

帖子

3742

积分

4K家园VIP

Rank: 9Rank: 9Rank: 9

积分
3742
发表于 4 天前 | 显示全部楼层
是爷们的娘们的都帮顶!大力支持
回复 支持 反对

使用道具 举报

0

主题

2

帖子

9

积分

新手上路

Rank: 1

积分
9
发表于 3 天前 | 显示全部楼层
感谢楼主分享!
回复 支持 反对

使用道具 举报

0

主题

1279

帖子

3849

积分

4K家园VIP

Rank: 9Rank: 9Rank: 9

积分
3849
发表于 昨天 05:22 来自手机 | 显示全部楼层
还有没有别的资源,多分享些
回复 支持 反对

使用道具 举报

您需要登录后才可以回帖 登录 | 立即注册

本版积分规则

精彩图文
Archiver|手机版|TAG|Sitemap|新帖|专题|联系我们:邮箱: 4kjia.com@gmail.com   

4k家园   ©2019