[4K电影] 地下丝绒 / The Velvet Underground (2021) 4K高清版本下载20.39GB

[复制链接]

1130

主题

1203

帖子

9797

积分

超级版主

Rank: 8Rank: 8

积分
9797
 楼主| 发表于 2021-10-15 15:53:44 | 显示全部楼层 |阅读模式
本帖最后由 最爱4K哟 于 2021-10-15 16:08 编辑

QQ图片20211015153624_副本.png

◎译  名 地下丝绒
◎片  名 The Velvet Underground
◎年  代 2021
◎产  地 美国
◎类  别 纪录片
◎语  言 英语
◎上映日期 2021-07-07(戛纳电影节) / 2021-10-15(美国络)
◎IMDb评分  7.6/10 from 171 users
◎IMDb链接  https://www.imdb.com/title/tt7230750/
◎豆瓣评分 0/10 from 0 users
◎豆瓣链接 https://movie.douban.com/subject/27108330/
◎片  长 110分钟
◎导  演 托德·海因斯
◎编  剧 托德·海因斯
◎主  演 卢·里德
                   约翰·凯尔
                   拉·蒙特·杨
                   乔纳森·里奇曼
                   玛丽·沃伦诺夫
                   莫林·塔克
                   斯特林·莫里森
                   艾米·陶宾
                   道格·尤尔
                   美林里德韦纳




◎简  介

       托德·海恩斯将首执导纪录片,聚焦缔造传奇的地下丝绒摇滚乐队。影片目前暂未定名,海恩斯则表示,本片必定会借鉴安迪·沃霍风格,也会更富文化意义。片中将收录乐队目前在世成员的采访。该纪录片的出现,也正好是该乐队首张经典专辑《地下丝绒与妮可》发行50周年。
  托德·海恩斯宣布将携手宝丽金、Verve Label Group一同打造这部聚焦地下丝绒摇滚乐队的未定名传记片。他表示:“能与环球音乐的团队一起着手这个项目,我感到非常兴奋,这是我执导的第一部纪录片,是关于音乐世界中最激进、最具影响力的摇滚乐队之一的地下丝绒乐队。”

Video
ID : 1
Format : HEVC
Format/Info : High Efficiency Video Coding
Format profile : Main 10@L5@High
HDR format : Dolby Vision, Version 1.0, dvhe.05.06, BL+RPU
Codec ID : V_MPEGH/ISO/HEVC
Duration : 2 h 0 min
Bit rate : 22.6 Mb/s
Width : 3 840 pixels
Height : 2 160 pixels
Display aspect ratio : 16:9
Frame rate mode : Constant
Frame rate : 23.976 (24000/1001) FPS
Color space : YUV
Chroma subsampling : 4:2:0
Bit depth : 10 bits
Bits/(Pixel*Frame) : 0.114
Stream size : 19.0 GiB (95%)
Language : English
Default : Yes
Forced : No

Audio
ID : 2
Format : E-AC-3 JOC
Format/Info : Enhanced AC-3 with Joint Object Coding
Commercial name : Dolby Digital Plus with Dolby Atmos
Codec ID : A_EAC3
Duration : 2 h 0 min
Bit rate mode : Constant
Bit rate : 768 kb/s
Channel(s) : 6 channels
Channel layout : L R C LFE Ls Rs
Sampling rate : 48.0 kHz
Frame rate : 31.250 FPS (1536 SPF)
Compression mode : Lossy
Stream size : 663 MiB (3%)
Language : English
Service kind : Complete Main
Default : Yes
Forced : No
Complexity index : 16
Number of dynamic objects : 15
Bed channel count : 1 channel
Bed channel configuration : LFE

Text #1
ID : 3
Format : UTF-8
Codec ID : S_TEXT/UTF8
Codec ID/Info : UTF-8 Plain Text
Title : English [Forced]
Language : English
Default : Yes
Forced : Yes

Text #2
ID : 4
Format : UTF-8
Codec ID : S_TEXT/UTF8
Codec ID/Info : UTF-8 Plain Text
Title : English
Language : English
Default : No
Forced : No

Text #3
ID : 5
Format : UTF-8
Codec ID : S_TEXT/UTF8
Codec ID/Info : UTF-8 Plain Text
Title : Arabic
Language : Arabic
Default : No
Forced : No

Text #4
ID : 6
Format : UTF-8
Codec ID : S_TEXT/UTF8
Codec ID/Info : UTF-8 Plain Text
Title : Bulgarian
Language : Bulgarian
Default : No
Forced : No

Text #5
ID : 7
Format : UTF-8
Codec ID : S_TEXT/UTF8
Codec ID/Info : UTF-8 Plain Text
Title : 中文简体
Language : 中文
Default : No
Forced : No

Text #6
ID : 8
Format : UTF-8
Codec ID : S_TEXT/UTF8
Codec ID/Info : UTF-8 Plain Text
Title : 中文繁体
Language : 中文
Default : No
Forced : No

Text #7
ID : 9
Format : UTF-8
Codec ID : S_TEXT/UTF8
Codec ID/Info : UTF-8 Plain Text
Title : 中文 粤语
Language : Chinese
Default : No
Forced : No

Text #8
ID : 10
Format : UTF-8
Codec ID : S_TEXT/UTF8
Codec ID/Info : UTF-8 Plain Text
Title : Czech
Language : Czech
Default : No
Forced : No

Text #9
ID : 11
Format : UTF-8
Codec ID : S_TEXT/UTF8
Codec ID/Info : UTF-8 Plain Text
Title : Danish
Language : Danish
Default : No
Forced : No

Text #10
ID : 12
Format : UTF-8
Codec ID : S_TEXT/UTF8
Codec ID/Info : UTF-8 Plain Text
Title : Dutch
Language : Dutch
Default : No
Forced : No

Text #11
ID : 13
Format : UTF-8
Codec ID : S_TEXT/UTF8
Codec ID/Info : UTF-8 Plain Text
Title : Estonian
Language : Estonian
Default : No
Forced : No

迅雷下载资源速度为零,资源敏感或被和谐时,推荐使用qBittorrent等无限速下载软件,有条件的推荐115更好的下载软件!

下载地址

游客,如果您要查看本帖隐藏内容请回复

游客,如果您要查看本帖隐藏内容请回复

游客,如果您要查看本帖隐藏内容请回复

游客,如果您要查看本帖隐藏内容请回复






上一篇:时栈中的指针 / Needle in a Timestack‎ (2021) 4K高清版本下载9.65GB
下一篇:校园蓝调(内封简繁中字)/ Varsity Blues (1999) 4K高清版本下载
回复

使用道具 举报

51

主题

1370

帖子

3942

积分

4K家园VIP

Rank: 9Rank: 9Rank: 9

积分
3942
发表于 2021-10-15 15:53:49 | 显示全部楼层
学习下
回复 支持 反对

使用道具 举报

41

主题

1494

帖子

4280

积分

4K家园VIP

Rank: 9Rank: 9Rank: 9

积分
4280
发表于 2021-10-15 15:53:49 | 显示全部楼层
怎么这么大,希望我电视能看啊
回复 支持 反对

使用道具 举报

0

主题

2

帖子

9

积分

新手上路

Rank: 1

积分
9
发表于 2021-10-15 17:09:45 | 显示全部楼层
ewewwe
回复

使用道具 举报

0

主题

6676

帖子

1万

积分

4K家园VIP

Rank: 9Rank: 9Rank: 9

积分
15538
发表于 2021-10-15 18:26:54 | 显示全部楼层
太好啦&萬分感謝版主的無私發佈分享%
回复 支持 反对

使用道具 举报

3

主题

1413

帖子

4093

积分

4K家园VIP

Rank: 9Rank: 9Rank: 9

积分
4093
发表于 2021-10-15 18:49:59 | 显示全部楼层
支持你哈...................................
回复 支持 反对

使用道具 举报

6

主题

1610

帖子

4418

积分

中级会员

Rank: 4

积分
4418
发表于 2021-10-15 19:41:35 | 显示全部楼层
楼猪V5啊
回复 支持 反对

使用道具 举报

2

主题

1407

帖子

4055

积分

4K家园VIP

Rank: 9Rank: 9Rank: 9

积分
4055
发表于 2021-10-16 01:55:55 来自手机 | 显示全部楼层
多谢楼主分享
回复 支持 反对

使用道具 举报

0

主题

11

帖子

45

积分

新手上路

Rank: 1

积分
45
发表于 2021-10-16 06:01:32 | 显示全部楼层

Where is Administration 4kjia.com?

Where is administration?
I'ts important.
Regards.
回复 支持 反对

使用道具 举报

0

主题

11

帖子

45

积分

新手上路

Rank: 1

积分
45
发表于 2021-10-17 13:27:12 | 显示全部楼层

Where is Administration 4kjia.com?

Can I contact Administration?
It is important.
Thanks.
回复 支持 反对

使用道具 举报

您需要登录后才可以回帖 登录 | 立即注册

本版积分规则

精彩图文
Archiver|手机版|TAG|Sitemap|新帖|专题|联系我们:邮箱: 4kjia.com@gmail.com   

4k家园   ©2019