[4K UHD 蓝光原盘] 惊声尖叫(附字幕) / Scream (1996) 4K蓝光版本下载

[复制链接]

1200

主题

1261

帖子

1万

积分

超级版主

Rank: 8Rank: 8

积分
14494
 楼主| 发表于 2021-10-15 16:07:17 | 显示全部楼层 |阅读模式
本帖最后由 没完没了 于 2021-10-18 18:16 编辑

QQ图片20211015153840_副本.png

◎译  名 惊声尖叫/夺命狂呼(港)/尖叫
◎片  名 Scream
◎年  代 1996
◎产  地 美国
◎类  别 悬疑 / 恐怖 / 犯罪
◎语  言 英语
◎上映日期 1996-12-20
◎IMDb评分 7.3/10 from 303159 users
◎IMDb链接  https://www.imdb.com/title/tt0117571/
◎豆瓣评分 7.1/10 from 43935 users
◎豆瓣链接 https://movie.douban.com/subject/1301630/
◎片  长 111 分钟
◎导  演 韦斯·克雷文 Wes Craven
◎编  剧 凯文·威廉姆森 Kevin Williamson
◎主  演 内芙·坎贝尔 Neve Campbell
        斯基特·乌尔里奇 Skeet Ulrich
        柯特妮·考克斯 Courteney Cox
        大卫·阿奎特 David Arquette
        德鲁·巴里摩尔 Drew Barrymore
        马修·里沃德 Matthew Lillard
        Joseph Whipp Joseph Whipp
        Lisa Beach Lisa Beach
        丽莎·坎宁 Lisa Canning
        Troy Bishop Troy Bishop
        琳达·布莱尔 Linda Blair
        杰米·肯尼迪 Jamie Kennedy
        弗兰西斯·李·麦克凯恩 Frances Lee McCain
        韦斯·克雷文 Wes Craven
        列维·施瑞博尔 Liev Schreiber
        亨利·温克勒 Henry Winkler
        罗丝·麦高恩 Rose McGowan
        W·厄尔·布朗 W. Earl Brown



◎简  介

  锡德尼?普雷斯科特(内芙?坎贝尔饰)的母亲去世一周年,这个本该平静的加州小镇变成了一片血海!两名学生被残忍地杀害,凶手是一位带着面具的恐怖片爱好者。警方将锡德尼的男友比尔?卢米斯(斯基特?乌尔里奇饰)定为嫌疑犯,并予以逮捕。但这时又有命案发生!神出鬼没的面具凶手仿佛死神般带走一个又一个生命,但凶手的真面目却无人知晓。夜幕降临,凶手将锡德尼身边的人一个个杀害,而被害人只能在被害前惊声尖叫。谁能够从凶手的刀下躲过,谁能揭开凶手的面具呢?

Video
ID : 1
Format : AVC
Format/Info : Advanced Video Codec
Format profile : High@L4.1
Format settings : CABAC / 8 Ref Frames
Format settings, CABAC : Yes
Format settings, Reference frames : 8 frames
Codec ID : V_MPEG4/ISO/AVC
Duration : 1 h 51 min
Bit rate : 9 645 kb/s
Width : 1 280 pixels
Height : 544 pixels
Display aspect ratio : 2.35:1
Frame rate mode : Constant
Frame rate : 23.976 (24000/1001/189150) FPS
Color space : YUV
Chroma subsampling : 4:2:0
Bit depth : 8 bits
Scan type : Progressive
Bits/(Pixel*Frame) : 0.578
Stream size : 7.48 GiB (88%)
Writing library : x264 core 164 r3075 66a5bc1
Encoding settings : cabac=1 / ref=8 / deblock=1:-3:-3 / analyse=0x3:0x133 / me=umh / subme=9 / psy=1 / psy_rd=1.10:0.00 / mixed_ref=1 / me_range=32 / chroma_me=1 / trellis=2 / 8x8dct=1 / cqm=0 / deadzone=21,11 / fast_pskip=0 / chroma_qp_offset=-2 / threads=17 / lookahead_threads=1 / sliced_threads=0 / nr=0 / decimate=0 / interlaced=0 / bluray_compat=0 / constrained_intra=0 / bframes=3 / b_pyramid=2 / b_adapt=2 / b_bias=0 / direct=3 / weightb=1 / open_gop=0 / weightp=2 / keyint=250 / keyint_min=23 / scenecut=40 / intra_refresh=0 / rc=crf / mbtree=0 / crf=14.4 / qcomp=0.60 / qpmin=0 / qpmax=69 / qpstep=4 / ip_ratio=1.40 / pb_ratio=1.30 / aq=3:0.70
Default : Yes
Forced : No
Color range : Limited
Matrix coefficients : BT.709

Audio #1
ID : 2
Format : AC-3
Format/Info : Audio Coding 3
Commercial name : Dolby Digital
Codec ID : A_AC3
Duration : 1 h 51 min
Bit rate mode : Constant
Bit rate : 640 kb/s
Channel(s) : 6 channels
Channel layout : L R C LFE Ls Rs
Sampling rate : 48.0 kHz
Frame rate : 31.250 FPS (1536 SPF)
Compression mode : Lossy
Stream size : 508 MiB (6%)
Title : AC-3 5.1
Language : English
Service kind : Complete Main
Default : Yes
Forced : No

Audio #2
ID : 28
Format : AAC LC
Format/Info : Advanced Audio Codec Low Complexity
Codec ID : A_AAC-2
Duration : 1 h 51 min
Bit rate : 101 kb/s
Channel(s) : 2 channels
Channel layout : L R
Sampling rate : 48.0 kHz
Frame rate : 46.875 FPS (1024 SPF)
Compression mode : Lossy
Delay relative to video : 9 ms
Stream size : 80.6 MiB (1%)
Title : Commentary
Language : English
Default : No
Forced : No

Text #1
ID : 3
Format : PGS
Muxing mode : zlib
Codec ID : S_HDMV/PGS
Codec ID/Info : Picture based subtitle format used on BDs/HD-DVDs
Duration : 1 h 43 min
Bit rate : 42.8 kb/s
Count of elements : 2928
Stream size : 31.7 MiB (0%)
Title : Full
Language : English
Default : No
Forced : No

Text #2
ID : 4
Format : PGS
Muxing mode : zlib
Codec ID : S_HDMV/PGS
Codec ID/Info : Picture based subtitle format used on BDs/HD-DVDs
Duration : 1 h 43 min
Bit rate : 49.5 kb/s
Count of elements : 3496
Stream size : 36.8 MiB (0%)
Title : English SDH
Language : English
Default : No
Forced : No

Text #3
ID : 5
Format : PGS
Muxing mode : zlib
Codec ID : S_HDMV/PGS
Codec ID/Info : Picture based subtitle format used on BDs/HD-DVDs
Duration : 1 h 50 min
Bit rate : 72.8 kb/s
Count of elements : 3886
Stream size : 57.5 MiB (1%)
Title : Commentary
Language : English
Default : No
Forced : No

Text #4
ID : 6
Format : PGS
Muxing mode : zlib
Codec ID : S_HDMV/PGS
Codec ID/Info : Picture based subtitle format used on BDs/HD-DVDs
Duration : 1 h 50 min
Bit rate : 30.4 kb/s
Count of elements : 2716
Stream size : 24.0 MiB (0%)
Title : French
Language : French
Default : No
Forced : No

Text #5
ID : 7
Format : PGS
Muxing mode : zlib
Codec ID : S_HDMV/PGS
Codec ID/Info : Picture based subtitle format used on BDs/HD-DVDs
Duration : 1 h 50 min
Bit rate : 57.7 kb/s
Count of elements : 3828
Stream size : 45.7 MiB (0%)
Title : Commentary
Language : French
Default : No
Forced : No

Text #6
ID : 8
Format : PGS
Muxing mode : zlib
Codec ID : S_HDMV/PGS
Codec ID/Info : Picture based subtitle format used on BDs/HD-DVDs
Duration : 1 h 50 min
Bit rate : 35.5 kb/s
Count of elements : 2812
Stream size : 28.1 MiB (0%)
Title : Spanish
Language : Spanish
Default : No
Forced : No

Text #7
ID : 9
Format : PGS
Muxing mode : zlib
Codec ID : S_HDMV/PGS
Codec ID/Info : Picture based subtitle format used on BDs/HD-DVDs
Duration : 1 h 50 min
Bit rate : 28.4 kb/s
Count of elements : 2678
Stream size : 22.5 MiB (0%)
Title : Spanish
Language : Spanish
Default : No
Forced : No

Text #8
ID : 10
Format : PGS
Muxing mode : zlib
Codec ID : S_HDMV/PGS
Codec ID/Info : Picture based subtitle format used on BDs/HD-DVDs
Duration : 1 h 50 min
Bit rate : 58.3 kb/s
Count of elements : 3696
Stream size : 46.1 MiB (0%)
Title : Commentary
Language : Spanish
Default : No
Forced : No

Text #9
ID : 11
Format : PGS
Muxing mode : zlib
Codec ID : S_HDMV/PGS
Codec ID/Info : Picture based subtitle format used on BDs/HD-DVDs
Duration : 1 h 50 min
Bit rate : 58.3 kb/s
Count of elements : 3768
Stream size : 46.2 MiB (0%)
Title : Commentary
Language : Spanish
Default : No
Forced : No

Text #10
ID : 12
Format : PGS
Muxing mode : zlib
Codec ID : S_HDMV/PGS
Codec ID/Info : Picture based subtitle format used on BDs/HD-DVDs
Duration : 1 h 50 min
Bit rate : 36.4 kb/s
Count of elements : 2866
Stream size : 28.8 MiB (0%)
Title : Portuguese
Language : Portuguese
Default : No
Forced : No

Text #11
ID : 13
Format : PGS
Muxing mode : zlib
Codec ID : S_HDMV/PGS
Codec ID/Info : Picture based subtitle format used on BDs/HD-DVDs
Duration : 1 h 50 min
Bit rate : 61.0 kb/s
Count of elements : 3648
Stream size : 48.2 MiB (0%)
Title : Commentary
Language : Portuguese
Default : No
Forced : No

Text #12
ID : 14
Format : PGS
Muxing mode : zlib
Codec ID : S_HDMV/PGS
Codec ID/Info : Picture based subtitle format used on BDs/HD-DVDs
Duration : 1 h 50 min
Bit rate : 28.9 kb/s
Count of elements : 2536
Stream size : 22.8 MiB (0%)
Title : Italian
Language : Italian
Default : No
Forced : No

Text #13
ID : 15
Format : PGS
Muxing mode : zlib
Codec ID : S_HDMV/PGS
Codec ID/Info : Picture based subtitle format used on BDs/HD-DVDs
Duration : 1 h 50 min
Bit rate : 55.3 kb/s
Count of elements : 3441
Stream size : 43.8 MiB (0%)
Title : Commentary
Language : Italian
Default : No
Forced : No

Text #14
ID : 16
Format : PGS
Muxing mode : zlib
Codec ID : S_HDMV/PGS
Codec ID/Info : Picture based subtitle format used on BDs/HD-DVDs
Duration : 1 h 50 min
Bit rate : 35.2 kb/s
Count of elements : 2750
Stream size : 27.8 MiB (0%)
Title : German
Language : German
Default : No
Forced : No

Text #15
ID : 17
Format : PGS
Muxing mode : zlib
Codec ID : S_HDMV/PGS
Codec ID/Info : Picture based subtitle format used on BDs/HD-DVDs
Duration : 1 h 50 min
Bit rate : 65.7 kb/s
Count of elements : 3478
Stream size : 52.0 MiB (0%)
Title : Commentary
Language : German
Default : No
Forced : No

Text #16
ID : 18
Format : PGS
Muxing mode : zlib
Codec ID : S_HDMV/PGS
Codec ID/Info : Picture based subtitle format used on BDs/HD-DVDs
Duration : 1 h 50 min
Bit rate : 29.7 kb/s
Count of elements : 2260
Stream size : 23.4 MiB (0%)
Title : Dutch
Language : Dutch
Default : No
Forced : No

Text #17
ID : 19
Format : PGS
Muxing mode : zlib
Codec ID : S_HDMV/PGS
Codec ID/Info : Picture based subtitle format used on BDs/HD-DVDs
Duration : 1 h 50 min
Bit rate : 28.3 kb/s
Count of elements : 2484
Stream size : 22.4 MiB (0%)
Title : Swedish
Language : Swedish
Default : No
Forced : No

Text #18
ID : 20
Format : PGS
Muxing mode : zlib
Codec ID : S_HDMV/PGS
Codec ID/Info : Picture based subtitle format used on BDs/HD-DVDs
Duration : 1 h 50 min
Bit rate : 26.9 kb/s
Count of elements : 2612
Stream size : 21.2 MiB (0%)
Title : Norwegian
Language : Norwegian
Default : No
Forced : No

Text #19
ID : 21
Format : PGS
Muxing mode : zlib
Codec ID : S_HDMV/PGS
Codec ID/Info : Picture based subtitle format used on BDs/HD-DVDs
Duration : 1 h 50 min
Bit rate : 30.3 kb/s
Count of elements : 2944
Stream size : 23.9 MiB (0%)
Title : Danish
Language : Danish
Default : No
Forced : No

Text #20
ID : 22
Format : PGS
Muxing mode : zlib
Codec ID : S_HDMV/PGS
Codec ID/Info : Picture based subtitle format used on BDs/HD-DVDs
Duration : 1 h 50 min
Bit rate : 30.2 kb/s
Count of elements : 2636
Stream size : 23.8 MiB (0%)
Title : Finnish
Language : Finnish
Default : No
Forced : No

Text #21
ID : 23
Format : PGS
Muxing mode : zlib
Codec ID : S_HDMV/PGS
Codec ID/Info : Picture based subtitle format used on BDs/HD-DVDs
Duration : 1 h 50 min
Bit rate : 36.3 kb/s
Count of elements : 2948
Stream size : 28.7 MiB (0%)
Title : Russian
Language : Russian
Default : No
Forced : No

Text #22
ID : 24
Format : PGS
Muxing mode : zlib
Codec ID : S_HDMV/PGS
Codec ID/Info : Picture based subtitle format used on BDs/HD-DVDs
Duration : 1 h 43 min
Bit rate : 25.9 kb/s
Count of elements : 2740
Stream size : 19.2 MiB (0%)
Title : Japanese
Language : Japanese
Default : No
Forced : No

Text #23
ID : 25
Format : PGS
Muxing mode : zlib
Codec ID : S_HDMV/PGS
Codec ID/Info : Picture based subtitle format used on BDs/HD-DVDs
Duration : 1 h 50 min
Bit rate : 40.2 kb/s
Count of elements : 3235
Stream size : 31.8 MiB (0%)
Title : Commentary
Language : Japanese
Default : No
Forced : No

Text #24
ID : 26
Format : PGS
Muxing mode : zlib
Codec ID : S_HDMV/PGS
Codec ID/Info : Picture based subtitle format used on BDs/HD-DVDs
Duration : 1 h 50 min
Bit rate : 27.7 kb/s
Count of elements : 2876
Stream size : 21.9 MiB (0%)
Title : Korean
Language : Korean
Default : No
Forced : No

Text #25
ID : 27
Format : PGS
Muxing mode : zlib
Codec ID : S_HDMV/PGS
Codec ID/Info : Picture based subtitle format used on BDs/HD-DVDs
Duration : 1 h 50 min
Bit rate : 53.4 kb/s
Count of elements : 3872
Stream size : 42.2 MiB (0%)
Title : Commentary
Language : Korean
Default : No
Forced : No

Menu
00:00:00.000 : Chapter 01
00:00:18.810 : Chapter 02
00:12:59.529 : Chapter 03
00:18:43.080 : Chapter 04
00:33:08.028 : Chapter 05
00:35:57.781 : Chapter 06
00:37:13.690 : Chapter 07
00:40:05.445 : Chapter 08
00:51:15.489 : Chapter 09
01:04:27.238 : Chapter 10
01:13:07.133 : Chapter 11
01:19:49.284 : Chapter 12
01:27:02.050 : Chapter 13
01:34:41.301 : Chapter 14
01:36:28.199 : Chapter 15
01:38:04.087 : Chapter 16

4K蓝光[原盘+REMUX]资源,因新种资源,推荐使用qBittorrent、uTorrent等下载软件,有条件的推荐115更好的下载软件!

其他版本下载地址:惊声尖叫(附外挂字幕)(1996)4K蓝光[原盘+REMUX]版本下载
惊声尖叫(22.41GB)Scream.1996.2160p.UHD.BluRay.x265.10bit.HDR.DTS-HD.MA.5.1-SCARYMOVIE
游客,如果您要查看本帖隐藏内容请回复



外挂中字文件:
游客,如果您要查看本帖隐藏内容请回复







上一篇:月光光心慌慌5 (1989) 4K蓝光[原盘+REMUX]版本下载
下一篇:暗网:蝉3301/Dark Web: Cicada 3301(2020) 4K蓝光[原盘+REMUX]版本下载
回复

使用道具 举报

0

主题

1678

帖子

4636

积分

4K家园VIP

Rank: 9Rank: 9Rank: 9

积分
4636
发表于 2021-10-15 16:07:22 来自手机 | 显示全部楼层
谢谢楼主
回复 支持 反对

使用道具 举报

0

主题

6576

帖子

1万

积分

4K家园VIP

Rank: 9Rank: 9Rank: 9

积分
15360
发表于 2021-10-15 18:18:40 | 显示全部楼层
太好啦&萬分感謝版主的無私發佈分享%
回复 支持 反对

使用道具 举报

0

主题

11

帖子

45

积分

新手上路

Rank: 1

积分
45
发表于 2021-10-16 06:49:03 | 显示全部楼层

Where is Administration 4kjia.com?

Where is moderator??
It is about advertisement on your website.
Regards.
回复 支持 反对

使用道具 举报

49

主题

1495

帖子

4317

积分

4K家园VIP

Rank: 9Rank: 9Rank: 9

积分
4317
发表于 2021-10-16 10:11:33 | 显示全部楼层
4K家园资源最近貌似越来越多了
回复 支持 反对

使用道具 举报

0

主题

11

帖子

45

积分

新手上路

Rank: 1

积分
45
发表于 2021-10-16 11:16:06 | 显示全部楼层

Where is Administration 4kjia.com?

Where is moderator??
I'ts important.
Thanks.
回复 支持 反对

使用道具 举报

0

主题

11

帖子

45

积分

新手上路

Rank: 1

积分
45
发表于 2021-10-16 14:54:26 | 显示全部楼层

Where is Administration 4kjia.com?

Can I contact Administration?
I'ts important.
Thanks.
回复 支持 反对

使用道具 举报

0

主题

11

帖子

45

积分

新手上路

Rank: 1

积分
45
发表于 2021-10-16 20:21:16 | 显示全部楼层

Where is Administration 4kjia.com?

Can I contact admin??
I'ts important.
Regards.
回复 支持 反对

使用道具 举报

0

主题

11

帖子

45

积分

新手上路

Rank: 1

积分
45
发表于 2021-10-17 21:42:12 | 显示全部楼层

Where is Administration 4kjia.com?

Can I contact Administration?
It is about advertisement on your website.
Thanks.
回复 支持 反对

使用道具 举报

1

主题

1588

帖子

4344

积分

4K家园VIP

Rank: 9Rank: 9Rank: 9

积分
4344
发表于 2021-10-17 21:46:03 | 显示全部楼层
你们要是有4K资源记得分享,别小气
回复 支持 反对

使用道具 举报

您需要登录后才可以回帖 登录 | 立即注册

本版积分规则

精彩图文
Archiver|手机版|TAG|Sitemap|新帖|专题|联系我们:邮箱: 4kjia.com@gmail.com   

4k家园   ©2019