科米的规则 / The Comey Rule (2020) /第一季全2集 / 4K高清下载

[复制链接]

52

主题

59

帖子

602

积分

版主

Rank: 7Rank: 7Rank: 7

积分
602
 楼主| 发表于 2021-10-15 16:21:46 | 显示全部楼层 |阅读模式
本帖最后由 美剧小虾 于 2021-10-15 16:23 编辑

p2618324266_副本.jpg

◎译  名 科米的规则/更高的忠诚/A Higher Loyalty
◎片  名 The Comey Rule
◎年  代 2020
◎产  地 美国
◎类  别 剧情/传记
◎语  言 英语
◎上映日期 2020-09-27(美国)
◎IMDb评分  7.2/10 from 4,068 users
◎IMDb链接  https://www.imdb.com/title/tt9174536/
◎豆瓣评分 7.9/10 from 703 users
◎豆瓣链接 https://douban.com/subject/35109768/
◎集  数 2
◎片  长 95/115
◎导  演 比利·雷 Billy Ray / Richard Jewell
◎编  剧 比利·雷 Billy Ray / Richard Jewell
◎主  演 杰夫·丹尼尔斯 Jeff Daniels
       布莱丹·格里森 Brendan Gleeson
       霍利·亨特 Holly Hunter
       迈克尔·凯利 Michael Kelly
       詹妮弗·艾莉 Jennifer Ehle
       斯科特·麦克纳里 Scoot McNairy
       达尔默·阿泽德 Dalmar Abuzeid
       达约·阿德 Dayo Ade
       Violet Brinson
       彼德·考约特 Peter Coyote
       诺维·爱德华兹 Novie Edwards
       吉恩·法贝尔 Gene Farber
       西恩·加拉赫 Seann Gallagher
       乔·洛·特鲁格里奥 Joe Lo Truglio
       艾米·西米茨 Amy Seimetz
       安德鲁·爱尔莱 Andrew Airlie
       乔纳森·班克斯 Jonathan Banks
       金斯利·本-阿迪尔 Kingsley Ben-Adir
       奥娜·卓别林 Oona Chaplin
       布莱恩·达西·詹姆斯 Brian d'Arcy James
       肖恩·多伊尔 Shawn Doyle
       斯宾塞·加雷特 Spencer Garrett
       詹姆斯·吉尔伯特 James Gilbert
       德里克·赫德 Derek Herd
       T·R·奈特 T.R. Knight
       Christina Notto
       史蒂文·帕斯奎尔 Steven Pasquale
       德尔菲娜·鲁塞尔 Delphine Roussel
       理查德·托马斯 Richard Thomas
       达蒙·冈普顿 Damon Gupton
       汉娜·戈登 Hannah Gordon
       史蒂夫·齐西斯 Steve Zissis


◎简  介


  杰夫·丹尼尔斯在剧中饰演曾任FBI局长的詹姆斯·科米。剧集改编自科米所著的畅销书《更高的忠诚》,讲述2016年总统大选时发生的一切,以及这次选举所带来的后续影响。

General
Complete name                  : H:\The.Comey.Rule.S01E01.Night.One.2160p.WEB-DL.DD5.1.HDR.x265-TEPES.mkv
Format                         : Matroska
Format version                 : Version 4
File size                      : 9.98 GiB
Duration                       : 1 h 35 min
Overall bit rate               : 15.0 Mb/s
Writing application            : mkvmerge v61.0.0 ('So') 64-bit
Writing library                : libebml v1.4.2 + libmatroska v1.6.4
IsTruncated                    : Yes

Video
ID                             : 1
Format                         : HEVC
Format/Info                    : High Efficiency Video Coding
Format profile                 : Main 10@L5@Main
HDR format                     : SMPTE ST 2086, HDR10 compatible
Codec ID                       : V_MPEGH/ISO/HEVC
Duration                       : 1 h 35 min
Bit rate                       : 14.3 Mb/s
Width                          : 3 840 pixels
Height                         : 2 160 pixels
Display aspect ratio           : 16:9
Frame rate mode                : Constant
Frame rate                     : 23.976 (24000/1001) FPS
Color space                    : YUV
Chroma subsampling             : 4:2:0
Bit depth                      : 10 bits
Bits/(Pixel*Frame)             : 0.072
Stream size                    : 9.53 GiB (95%)
Writing library                : x265 2.8hy:[Linux][GCC 7.5.0][64 bit] 10bit
Encoding settings              : cpuid=1111039 / frame-threads=1 / no-wpp / no-pmode / no-pme / no-psnr / no-ssim / log-level=2 / input-csp=1 / input-res=3840x2160 / interlace=0 / total-frames=0 / level-idc=0 / high-tier=1 / uhd-bd=0 / ref=4 / no-allow-non-conformance / repeat-headers / annexb / aud / hrd / info / hash=0 / no-temporal-layers / no-open-gop / min-keyint=48 / keyint=48 / gop-lookahead=0 / bframes=4 / b-adapt=2 / b-pyramid / bframe-bias=0 / rc-lookahead=48 / lookahead-slices=4 / scenecut=0 / radl=0 / no-intra-refresh / ctu=64 / min-cu-size=8 / rect / no-amp / max-tu-size=32 / tu-inter-depth=1 / tu-intra-depth=1 / limit-tu=0 / rdoq-level=2 / dynamic-rd=0.00 / no-ssim-rd / signhide / no-tskip / nr-intra=100 / nr-inter=400 / no-constrained-intra / strong-intra-smoothing / max-merge=3 / limit-refs=3 / limit-modes / me=3 / subme=3 / merange=57 / temporal-mvp / weightp / no-weightb / no-analyze-src-pics / deblock=0:0 / sao / no-sao-non-deblock / rd=4 / no-early-skip / rskip / no-fast-intra / no-tskip-fast / no-cu-lossless / no-b-intra / no-splitrd-skip / rdpenalty=0 / psy-rd=0.00 / psy-rdoq=1.00 / no-rd-refine / no-lossless / cbqpoffs=0 / crqpoffs=3 / rc=abr / bitrate=15000 / qcomp=0.60 / qpstep=4 / stats-write=0 / stats-read=2 / cplxblur=20.0 / qblur=0.5 / vbv-maxrate=18000 / vbv-bufsize=12000 / vbv-init=0.6 / vbv-end=0.6 / vbv-end-fr-adj=0.0 / ipratio=1.40 / pbratio=1.30 / aq-mode=1 / aq-strength=1.00 / cutree / zone-count=0 / no-strict-cbr / qg-size=32 / no-rc-grain / qpmax=69 / qpmin=0 / no-const-vbv / sar=1 / overscan=0 / videoformat=5 / range=0 / colorprim=9 / transfer=16 / colormatrix=9 / chromaloc=0 / display-window=0 / master-display=G(13250,34500)B(7500,3000)R(34000,16000)WP(15635,16450)L(10000000,1) / max-cll=0,0 / min-luma=0 / max-luma=1023 / log2-max-poc-lsb=8 / vui-timing-info / vui-hrd-info / no-concatenation / slices=1 / no-opt-qp-pps / no-opt-ref-list-length-pps / no-multi-pass-opt-rps / scenecut-bias=0.05 / no-opt-cu-delta-qp / no-aq-motion / hdr / no-hdr-opt / no-dhdr10-opt / no-idr-recovery-sei / analysis-reuse-level=5 / scale-factor=0 / refine-intra=0 / refine-inter=0 / refine-mv=0 / no-limit-sao / ctu-info=0 / no-lowpass-dct / refine-mv-type=0 / copy-pic=1 / max-ausize-factor=1.0 / no-dynamic-refine / no-single-sei
Language                       : English
Default                        : Yes
Forced                         : No
Color range                    : Limited
Color primaries                : BT.2020
Transfer characteristics       : PQ
Matrix coefficients            : BT.2020 non-constant
Mastering display color primar : Display P3
Mastering display luminance    : min: 0.0001 cd/m2, max: 1000 cd/m2

Audio
ID                             : 2
Format                         : AC-3
Format/Info                    : Audio Coding 3
Commercial name                : Dolby Digital
Codec ID                       : A_AC3
Duration                       : 1 h 35 min
Bit rate mode                  : Constant
Bit rate                       : 384 kb/s
Channel(s)                     : 6 channels
Channel layout                 : L R C LFE Ls Rs
Sampling rate                  : 48.0 kHz
Frame rate                     : 31.250 FPS (1536 SPF)
Compression mode               : Lossy
Stream size                    : 262 MiB (3%)
Language                       : English
Service kind                   : Complete Main
Default                        : Yes
Forced                         : No

Text
ID                             : 3
Format                         : UTF-8
Codec ID                       : S_TEXT/UTF8
Codec ID/Info                  : UTF-8 Plain Text
Language                       : English
Default                        : No
Forced                         : No

下载地址

游客,如果您要查看本帖隐藏内容请回复

游客,如果您要查看本帖隐藏内容请回复

游客,如果您要查看本帖隐藏内容请回复

游客,如果您要查看本帖隐藏内容请回复





上一篇:现实以外(内嵌中字)/Just Beyond (2021) /第一季全8集 / 4K高清下载
下一篇:看见(内嵌简繁中字) / See (2021) / 第二季全8集 / 4K高清下载
回复

使用道具 举报

1

主题

1281

帖子

3859

积分

4K家园VIP

Rank: 9Rank: 9Rank: 9

积分
3859
发表于 2021-10-15 16:23:54 来自手机 | 显示全部楼层
哈哈,我只看看不说话
回复 支持 反对

使用道具 举报

0

主题

6676

帖子

1万

积分

4K家园VIP

Rank: 9Rank: 9Rank: 9

积分
15538
发表于 2021-10-15 18:18:08 | 显示全部楼层
太好啦&萬分感謝版主的無私發佈分享%
回复 支持 反对

使用道具 举报

1

主题

1163

帖子

3511

积分

4K家园VIP

Rank: 9Rank: 9Rank: 9

积分
3511
发表于 2021-10-16 17:43:46 来自手机 | 显示全部楼层
没人回帖。。。我来个吧
回复 支持 反对

使用道具 举报

4

主题

1654

帖子

4566

积分

4K家园VIP

Rank: 9Rank: 9Rank: 9

积分
4566
发表于 2021-10-16 18:29:01 来自手机 | 显示全部楼层
路过
回复 支持 反对

使用道具 举报

2

主题

1615

帖子

4485

积分

4K家园VIP

Rank: 9Rank: 9Rank: 9

积分
4485
发表于 2021-10-18 21:29:49 来自手机 | 显示全部楼层
1v1飘过
回复 支持 反对

使用道具 举报

1

主题

1312

帖子

3782

积分

4K家园VIP

Rank: 9Rank: 9Rank: 9

积分
3782
发表于 2021-10-20 00:41:36 | 显示全部楼层
为保住菊花,这个一定得回复!
回复 支持 反对

使用道具 举报

0

主题

6676

帖子

1万

积分

4K家园VIP

Rank: 9Rank: 9Rank: 9

积分
15538
发表于 2021-10-20 10:37:34 | 显示全部楼层
太好啦&萬分感謝版主的無私發佈分享%
回复 支持 反对

使用道具 举报

您需要登录后才可以回帖 登录 | 立即注册

本版积分规则

精彩图文
Archiver|手机版|TAG|Sitemap|新帖|专题|联系我们:邮箱: 4kjia.com@gmail.com   

4k家园   ©2019