[4K UHD 蓝光原盘] 门徒(俄版) / The Protege (2021) 4K蓝光REMUX版本下载

[复制链接]

1200

主题

1261

帖子

1万

积分

超级版主

Rank: 8Rank: 8

积分
14494
 楼主| 发表于 2021-10-17 11:04:02 | 显示全部楼层 |阅读模式
QQ图片20211016103733_副本.png

◎译  名 门徒/The Asset/The Protege/复仇杀姬(港)/有价之人/资产
◎片  名 The Protégé
◎年  代 2021
◎产  地 美国
◎类  别 动作 / 惊悚 / 犯罪
◎语  言 英语
◎上映日期 2021-08-20(美国)
◎IMDb评分  6.4/10 from 2072 users
◎IMDb链接  https://www.imdb.com/title/tt6079772/
◎豆瓣评分 6.3/10 from 102 users
◎豆瓣链接 https://movie.douban.com/subject/34881663/
◎片  长 109分钟
◎导  演 马丁·坎贝尔 Martin Campbell
◎编  剧 理查德·温克 Richard Wenk
◎主  演 李美琪 Maggie Q
      迈克尔·基顿 Michael Keaton
      塞缪尔·杰克逊 Samuel L. Jackson
      大卫·瑞托 David Rintoul
      帕特里克·麦拉海德 Patrick Malahide
      雷·费隆 Ray Fearon
      奥利·普费弗 Ori Pfeffer
      罗伯特·帕特里克 Robert Patrick
      小弗洛林·皮尔斯齐 Florin Piersic Jr.
      杜铎·奇里拉 Tudor Chirila
      沃利扎·比尼夫 Velizar Binev
      乔治·皮斯特拉努 George Pistereanu
      伊娃·努金·索森 Eva Nugyen Thorsen
      亚历克斯·博尔达 Alex Bordea
      塔尼娅·凯勒 Tanja Keller
      塔伊·阿特沃尔 Taj Atwal
      卡罗琳·朗奎 Caroline Loncq
      丽琪达·卡里 Richenda Carey
      大卫·斯特恩 David Sterne
      杰克·德格斯 Jack Derges
      唐·迈克尔·保罗 Don Michael Paul


◎简  介


  故事围绕伦勃朗(基顿饰)和安娜(李美琪饰)展开,这两个世界上最顶级的杀手将揭露一段发生在越南的神秘往事。多年来,他们游遍全球来互相争夺最抢手的合同。但当安娜的导师穆迪(杰克逊饰)被谋杀时,她和伦勃朗必须结盟,返回越南追捕凶手。

General
Unique ID                      : 313469761613503914088078809496409138597 (0xEBD4147E7E55BA80C54571014704E5A5)
Complete name                  : D:\The.Protege.2021.BDREMUX.2160p.HDR.DVP8.seleZen.mkv
Format                         : Matroska
Format version                 : Version 4
File size                      : 57.9 GiB
Duration                       : 1 h 49 min
Overall bit rate mode          : Variable
Overall bit rate               : 76.0 Mb/s
Movie name                     : The Protégé / The Protege 2021 from seleZen
Encoded date                   : UTC 2021-10-14 19:58:14
Writing application            : mkvmerge v59.0.0 ('Shining Star') 64-bit
Writing library                : libebml v1.4.2 + libmatroska v1.6.4
IsTruncated                    : Yes

Video
ID                             : 1
Format                         : HEVC
Format/Info                    : High Efficiency Video Coding
Format profile                 : Main 10@L5.1@High
HDR format                     : Dolby Vision, Version 1.0, dvhe.08.06, BL+RPU, Blu-ray compatible / SMPTE ST 2086, HDR10 compatible
Codec ID                       : V_MPEGH/ISO/HEVC
Duration                       : 1 h 49 min
Width                          : 3 840 pixels
Height                         : 2 160 pixels
Display aspect ratio           : 16:9
Frame rate mode                : Constant
Frame rate                     : 23.976 (24000/1001) FPS
Color space                    : YUV
Chroma subsampling             : 4:2:0 (Type 2)
Bit depth                      : 10 bits
Language                       : English
Default                        : No
Forced                         : No
Color range                    : Limited
Color primaries                : BT.2020
Transfer characteristics       : PQ
Matrix coefficients            : BT.2020 non-constant
Mastering display color primar : Display P3
Mastering display luminance    : min: 0.0001 cd/m2, max: 1000 cd/m2
Maximum Content Light Level    : 1000 cd/m2
Maximum Frame-Average Light Le : 923 cd/m2

Audio #1
ID                             : 2
Format                         : AC-3
Format/Info                    : Audio Coding 3
Commercial name                : Dolby Digital
Codec ID                       : A_AC3
Duration                       : 1 h 49 min
Bit rate mode                  : Constant
Bit rate                       : 384 kb/s
Channel(s)                     : 6 channels
Channel layout                 : L R C LFE Ls Rs
Sampling rate                  : 48.0 kHz
Frame rate                     : 31.250 FPS (1536 SPF)
Compression mode               : Lossy
Stream size                    : 300 MiB (0%)
Title                          : Dub [iTunes]
Language                       : Russian
Service kind                   : Complete Main
Default                        : Yes
Forced                         : Yes

Audio #2
ID                             : 3
Format                         : AC-3
Format/Info                    : Audio Coding 3
Commercial name                : Dolby Digital
Codec ID                       : A_AC3
Duration                       : 1 h 49 min
Bit rate mode                  : Constant
Bit rate                       : 448 kb/s
Channel(s)                     : 6 channels
Channel layout                 : L R C LFE Ls Rs
Sampling rate                  : 48.0 kHz
Frame rate                     : 31.250 FPS (1536 SPF)
Compression mode               : Lossy
Stream size                    : 350 MiB (0%)
Title                          : AVO [kyberpunk]
Language                       : Russian
Service kind                   : Complete Main
Default                        : No
Forced                         : No

Audio #3
ID                             : 4
Format                         : MLP FBA 16-ch
Format/Info                    : Meridian Lossless Packing FBA with 16-channel presentation
Commercial name                : Dolby TrueHD with Dolby Atmos
Codec ID                       : A_TRUEHD
Duration                       : 1 h 49 min
Bit rate mode                  : Variable
Maximum bit rate               : 8 016 kb/s
Channel(s)                     : 8 channels
Channel layout                 : L R C LFE Ls Rs Lb Rb
Sampling rate                  : 48.0 kHz
Frame rate                     : 1 200.000 FPS (40 SPF)
Compression mode               : Lossless
Title                          : Original
Language                       : English
Default                        : No
Forced                         : No
Number of dynamic objects      : 11
Bed channel count              : 1 channel
Bed channel configuration      : LFE

Audio #4
ID                             : 5
Format                         : AC-3
Format/Info                    : Audio Coding 3
Commercial name                : Dolby Digital
Format settings                : Dolby Surround EX
Codec ID                       : A_AC3
Duration                       : 1 h 49 min
Bit rate mode                  : Constant
Bit rate                       : 640 kb/s
Channel(s)                     : 6 channels
Channel layout                 : L R C LFE Ls Rs
Sampling rate                  : 48.0 kHz
Frame rate                     : 31.250 FPS (1536 SPF)
Compression mode               : Lossy
Stream size                    : 500 MiB (1%)
Language                       : English
Service kind                   : Complete Main
Default                        : No
Forced                         : No

Text #1
ID                             : 6
Format                         : UTF-8
Codec ID                       : S_TEXT/UTF8
Codec ID/Info                  : UTF-8 Plain Text
Title                          : Full
Language                       : Russian
Default                        : No
Forced                         : No

Text #2
ID                             : 7
Format                         : UTF-8
Codec ID                       : S_TEXT/UTF8
Codec ID/Info                  : UTF-8 Plain Text
Language                       : English
Default                        : No
Forced                         : No

Menu
00:00:00.000                   : Глава 01
00:03:42.764                   : Глава 02
00:03:42.848                   : Глава 03
00:11:16.217                   : Глава 04
00:11:16.301                   : Глава 05
00:20:44.201                   : Глава 06
00:20:44.285                   : Глава 07
00:25:32.406                   : Глава 08
00:25:32.489                   : Глава 09
00:31:32.390                   : Глава 10
00:31:32.474                   : Глава 11
00:37:53.688                   : Глава 12
00:37:53.771                   : Глава 13
00:46:41.549                   : Глава 14
00:46:41.632                   : Глава 15
00:51:49.231                   : Глава 16
00:51:49.315                   : Глава 17
00:54:49.536                   : Глава 18
00:54:49.620                   : Глава 19
00:59:55.842                   : Глава 20
00:59:55.926                   : Глава 21
01:05:41.187                   : Глава 22
01:05:41.271                   : Глава 23
01:12:48.656                   : Глава 24
01:12:48.739                   : Глава 25
01:18:25.910                   : Глава 26
01:18:25.993                   : Глава 27
01:25:31.209                   : Глава 28
01:25:31.293                   : Глава 29
01:34:57.734                   : Глава 30
01:34:57.817                   : Глава 31


4K蓝光[原盘+REMUX]资源,因新种资源,推荐使用qBittorrent、uTorrent等下载软件,有条件的推荐115更好的下载软件!

门徒(68.23GB)The.Protege.2021.BDREMUX.2160p.HDR.DV.seleZen-【4K-蓝光REMUX】
磁力链接下载(请用QB下载软件下载,以获取更快的下载速度):
****此区域为收费内容****    需支付 30 金币后可查看立即购买


门徒(58.54GB)The.Protege.2021.BDREMUX.2160p.HDR.DVP8.seleZen-【4K-蓝光REMUX】
磁力链接下载(请用QB下载软件下载,以获取更快的下载速度):
****此区域为收费内容****    需支付 30 金币后可查看立即购买


211826fxv4qxz856xz6dxv.gif

上一篇:暗网:蝉3301/Dark Web: Cicada 3301(2020) 4K蓝光[原盘+REMUX]版本下载
下一篇:特种部队:蛇眼起源 (2021) 4K蓝光[原盘+REMUX]版本下载
回复

使用道具 举报

1200

主题

1261

帖子

1万

积分

超级版主

Rank: 8Rank: 8

积分
14494
 楼主| 发表于 2021-10-17 16:13:38 | 显示全部楼层
The.Protege.2021.BDREMUX.2160p.HDR.DVP8.seleZen.mkv_20211017_144307.094.jpg The.Protege.2021.BDREMUX.2160p.HDR.DVP8.seleZen.mkv_20211017_152507.849.jpg The.Protege.2021.BDREMUX.2160p.HDR.DVP8.seleZen.mkv_20211017_152521.344.jpg The.Protege.2021.BDREMUX.2160p.HDR.DVP8.seleZen.mkv_20211017_153341.329.jpg The.Protege.2021.BDREMUX.2160p.HDR.DVP8.seleZen.mkv_20211017_155606.770.jpg The.Protege.2021.BDREMUX.2160p.HDR.DVP8.seleZen.mkv_20211017_160218.538.jpg
回复 支持 反对

使用道具 举报

2

主题

1294

帖子

3732

积分

4K家园VIP

Rank: 9Rank: 9Rank: 9

积分
3732
发表于 2021-10-17 11:04:07 来自手机 | 显示全部楼层
楼主这资源不错,我收藏了
回复 支持 反对

使用道具 举报

0

主题

6576

帖子

1万

积分

4K家园VIP

Rank: 9Rank: 9Rank: 9

积分
15360
发表于 2021-10-17 13:07:09 | 显示全部楼层
太好啦&萬分感謝版主的無私發佈分享%
回复 支持 反对

使用道具 举报

0

主题

201

帖子

1224

积分

注册会员

Rank: 2

积分
1224
发表于 2021-10-17 15:01:36 | 显示全部楼层
谢谢分享好片
回复 支持 反对

使用道具 举报

0

主题

26

帖子

2618

积分

4K家园VIP

Rank: 9Rank: 9Rank: 9

积分
2618
发表于 2021-10-18 10:47:37 | 显示全部楼层
谢谢分享好片
回复 支持 反对

使用道具 举报

2

主题

1263

帖子

3807

积分

4K家园VIP

Rank: 9Rank: 9Rank: 9

积分
3807
发表于 2021-10-18 13:17:38 来自手机 | 显示全部楼层
楼主这资源不错,我收藏了
回复 支持 反对

使用道具 举报

0

主题

342

帖子

3544

积分

4K家园VIP

Rank: 9Rank: 9Rank: 9

积分
3544
QQ
发表于 2021-10-18 20:07:07 | 显示全部楼层
谢谢楼主分享好影片,辛苦了!
回复 支持 反对

使用道具 举报

53

主题

1468

帖子

4272

积分

4K家园VIP

Rank: 9Rank: 9Rank: 9

积分
4272
发表于 2021-10-18 22:46:34 来自手机 | 显示全部楼层
还有没有别的资源,多分享些
回复 支持 反对

使用道具 举报

1

主题

1382

帖子

4160

积分

4K家园VIP

Rank: 9Rank: 9Rank: 9

积分
4160
发表于 2021-10-19 22:48:59 来自手机 | 显示全部楼层
谢谢楼主
回复 支持 反对

使用道具 举报

您需要登录后才可以回帖 登录 | 立即注册

本版积分规则

精彩图文
Archiver|手机版|TAG|Sitemap|新帖|专题|联系我们:邮箱: 4kjia.com@gmail.com   

4k家园   ©2019