[4K电影] 校园蓝调(内封简繁中字)/ Varsity Blues (1999) 4K高清版本下载

[复制链接]

1094

主题

1167

帖子

9581

积分

超级版主

Rank: 8Rank: 8

积分
9581
 楼主| 发表于 2021-10-19 10:05:17 | 显示全部楼层 |阅读模式
本帖最后由 最爱4K哟 于 2021-10-19 11:38 编辑

QQ图片20211019113602_副本.png

◎译  名 校园蓝调/主力难当/情天雨天足球天
◎片  名 Varsity Blues
◎年  代 1999
◎产  地 美国
◎类  别 剧情 / 喜剧 / 爱情 / 运动
◎语  言 英语
◎上映日期 1999-10-16
◎IMDb评分  6.5/10 from 44089 users
◎IMDb链接  https://www.imdb.com/title/tt0139699/
◎豆瓣评分 6.9/10 from 953 users
◎豆瓣链接 https://movie.douban.com/subject/1293259/
◎片  长 106 分钟
◎导  演 布莱恩·罗宾斯 Brian Robbins
◎主  演 罗恩·莱斯特 Ron Lester
      斯科特·凯恩 Scott Caan
      强·沃特 Jon Voight
      保罗·沃克 Paul Walker
      马可·佩雷拉 Marco Perella
      詹姆斯·范德比克 James Van Der Beek



◎简  介

  橄榄球对于迦南镇的居民们来说实在是太重要了,身为他们挚爱的高中小狼队的教练,吉尔默(强·沃特 Jon Voight 饰)拥有着至高无上的发言权,因为在他的带领和执教下,小狼队曾经两次在州里夺得了金杯。

  马克思(詹姆斯·范德比克 James Van Der Beek 饰)和兰斯(保罗·沃克 Paul Walker 饰)是无话不谈的好友,与此同时,兰斯亦是小狼队中的强力前锋。然而,在一场十分重要的比赛来临之际,兰斯却因受伤而退出了球队,取而代之的,竟然是半吊子的马克斯。让大家都没有想到的是,马克思竟然干得不错,一下子,他从默默无闻的小卒成为了小镇英雄。可是,胜利带来了荣耀,却也带来了麻烦。
Video
ID : 1
Format : HEVC
Format/Info : High Efficiency Video Coding
Format profile : Main 10@L5@High
HDR format : Dolby Vision, Version 1.0, dvhe.05.06, BL+RPU
Codec ID : dvhe
Codec ID/Info : High Efficiency Video Coding with Dolby Vision
Duration : 1 h 44 min
Bit rate : 24.6 Mb/s
Width : 3 840 pixels
Height : 2 160 pixels
Display aspect ratio : 16:9
Frame rate mode : Constant
Frame rate : 23.976 (24000/1001/189150) FPS
Color space : YUV
Chroma subsampling : 4:2:0
Bit depth : 10 bits
Bits/(Pixel*Frame) : 0.124
Stream size : 18.0 GiB (98%)
Default : Yes
Alternate group : 1
Encoded date : UTC 2021-10-17 02:43:16
Tagged date : UTC 2021-10-17 03:06:57
Codec configuration box : hvcC+dvcC

Audio
ID : 2
Format : AC-3
Format/Info : Audio Coding 3
Commercial name : Dolby Digital
Codec ID : ac-3
Duration : 1 h 44 min
Bit rate mode : Constant
Bit rate : 384 kb/s
Maximum bit rate : 406 kb/s
Channel(s) : 6 channels
Channel layout : L R C LFE Ls Rs
Sampling rate : 48.0 kHz
Frame rate : 31.250 FPS (1536 SPF)
Compression mode : Lossy
Stream size : 287 MiB (2%)
Language : English
Service kind : Complete Main
Encoded date : UTC 2021-10-17 02:38:33
Tagged date : UTC 2021-10-17 03:06:57

Text #1
ID : 3
Format : Timed Text
Codec ID : tx3g
Duration : 1 h 44 min
Bit rate mode : Variable
Bit rate : 75 b/s
Stream size : 57.4 KiB (0%)
Language : English
Forced : No
Encoded date : UTC 2021-10-17 02:45:17
Tagged date : UTC 2021-10-17 03:06:57

Text #2
ID : 4
Format : Timed Text
Codec ID : tx3g
Duration : 1 h 44 min
Bit rate mode : Variable
Bit rate : 92 b/s
Stream size : 70.3 KiB (0%)
Title : SDH
Language : English
Forced : No
Encoded date : UTC 2021-10-17 02:45:20
Tagged date : UTC 2021-10-17 03:06:57

Text #3
ID : 5
Format : Timed Text
Codec ID : tx3g
Duration : 1 h 40 min
Bit rate mode : Variable
Bit rate : 71 b/s
Stream size : 52.6 KiB (0%)
Language : Bulgarian
Forced : No
Encoded date : UTC 2021-10-17 02:45:27
Tagged date : UTC 2021-10-17 03:06:57

Text #4
ID : 6
Format : Timed Text
Codec ID : tx3g
Duration : 1 h 40 min
Bit rate mode : Variable
Bit rate : 45 b/s
Stream size : 33.0 KiB (0%)
Title : 简体
Language : 中文
Forced : No
Encoded date : UTC 2021-10-17 02:45:27
Tagged date : UTC 2021-10-17 03:06:57

Text #5
ID : 7
Format : Timed Text
Codec ID : tx3g
Duration : 1 h 40 min
Bit rate mode : Variable
Bit rate : 40 b/s
Stream size : 29.7 KiB (0%)
Title : 繁体
Language : 中文
Forced : No
Encoded date : UTC 2021-10-17 02:45:30
Tagged date : UTC 2021-10-17 03:06:57

Text #6
ID : 8
Format : Timed Text
Codec ID : tx3g
Duration : 1 h 40 min
Bit rate mode : Variable
Bit rate : 49 b/s
Stream size : 35.9 KiB (0%)
Language : Danish
Forced : No
Encoded date : UTC 2021-10-17 02:45:33
Tagged date : UTC 2021-10-17 03:06:57

Text #7
ID : 9
Format : Timed Text
Codec ID : tx3g
Duration : 1 h 40 min
Bit rate mode : Variable
Bit rate : 50 b/s
Stream size : 36.5 KiB (0%)
Language : German
Forced : No
Encoded date : UTC 2021-10-17 02:45:33
Tagged date : UTC 2021-10-17 03:06:57

Text #8
ID : 10
Format : Timed Text
Codec ID : tx3g
Duration : 1 h 40 min
Bit rate mode : Variable
Bit rate : 62 b/s
Stream size : 46.1 KiB (0%)
Title : Latin American
Language : Spanish
Forced : No
Encoded date : UTC 2021-10-17 02:45:37
Tagged date : UTC 2021-10-17 03:06:57

Text #9
ID : 11
Format : Timed Text
Codec ID : tx3g
Duration : 1 h 40 min
Bit rate mode : Variable
Bit rate : 49 b/s
Stream size : 35.9 KiB (0%)
Language : Finnish
Forced : No
Encoded date : UTC 2021-10-17 02:45:40
Tagged date : UTC 2021-10-17 03:06:57

Text #10
ID : 12
Format : Timed Text
Codec ID : tx3g
Duration : 1 h 40 min
Bit rate mode : Variable
Bit rate : 56 b/s
Stream size : 41.2 KiB (0%)
Language : French
Forced : No
Encoded date : UTC 2021-10-17 02:45:41
Tagged date : UTC 2021-10-17 03:06:57

Text #11
ID : 13
Format : Timed Text
Codec ID : tx3g
Duration : 1 h 40 min
Bit rate mode : Variable
Bit rate : 44 b/s
Stream size : 32.8 KiB (0%)
Language : Dutch
Forced : No
Encoded date : UTC 2021-10-17 02:45:43
Tagged date : UTC 2021-10-17 03:06:57

Text #12
ID : 14
Format : Timed Text
Codec ID : tx3g
Duration : 1 h 40 min
Bit rate mode : Variable
Bit rate : 49 b/s
Stream size : 36.4 KiB (0%)
Language : Norwegian
Forced : No
Encoded date : UTC 2021-10-17 02:45:44
Tagged date : UTC 2021-10-17 03:06:57

Text #13
ID : 15
Format : Timed Text
Codec ID : tx3g
Duration : 1 h 40 min
Bit rate mode : Variable
Bit rate : 63 b/s
Stream size : 46.4 KiB (0%)
Title : Brazilian
Language : Portuguese
Forced : No
Encoded date : UTC 2021-10-17 02:45:44
Tagged date : UTC 2021-10-17 03:06:57

Text #14
ID : 16
Format : Timed Text
Codec ID : tx3g
Duration : 1 h 40 min
Bit rate mode : Variable
Bit rate : 50 b/s
Stream size : 37.2 KiB (0%)
Language : Portuguese
Forced : No
Encoded date : UTC 2021-10-17 02:45:47
Tagged date : UTC 2021-10-17 03:06:57

Text #15
ID : 17
Format : Timed Text
Codec ID : tx3g
Duration : 1 h 40 min
Bit rate mode : Variable
Bit rate : 49 b/s
Stream size : 36.0 KiB (0%)
Language : Swedish
Forced : No
Encoded date : UTC 2021-10-17 02:45:50
Tagged date : UTC 2021-10-17 03:06:57

Text #16
ID : 18
Format : Timed Text
Codec ID : tx3g
Duration : 1 h 40 min
Bit rate mode : Variable
Bit rate : 127 b/s
Stream size : 93.8 KiB (0%)
Language : Thai
Forced : No
Encoded date : UTC 2021-10-17 02:45:50
Tagged date : UTC 2021-10-17 03:06:57

Text #17
ID : 19
Format : Timed Text
Codec ID : tx3g
Duration : 1 h 40 min
Bit rate mode : Variable
Bit rate : 54 b/s
Stream size : 39.6 KiB (0%)
Language : Turkish
Forced : No
Encoded date : UTC 2021-10-17 02:45:54
Tagged date : UTC 2021-10-17 03:06:57

Text #18
ID : 20
Format : Timed Text
Codec ID : tx3g
Duration : 1 h 40 min
Bit rate mode : Variable
Bit rate : 41 b/s
Stream size : 30.6 KiB (0%)
Title : Cantonese
Language : Chinese
Forced : No
Encoded date : UTC 2021-10-17 02:45:54
Tagged date : UTC 2021-10-17 03:06:57

Menu
00:00:00.000 : Chapter 1
00:06:41.233 : Chapter 2
00:09:13.970 : Chapter 3
00:14:59.732 : Chapter 4
00:18:50.380 : Chapter 5
00:24:09.699 : Chapter 6
00:27:01.913 : Chapter 7
00:31:01.694 : Chapter 8
00:34:11.760 : Chapter 9
00:37:48.851 : Chapter 10
00:43:41.829 : Chapter 11
00:46:59.235 : Chapter 12
00:49:18.083 : Chapter 13
00:59:33.989 : Chapter 14
01:03:56.251 : Chapter 15
01:09:04.476 : Chapter 16
01:13:24.112 : Chapter 17
01:18:53.983 : Chapter 18
01:26:00.493 : Chapter 19
01:39:31.970 : Chapter 20

迅雷下载资源速度为零,资源敏感或被和谐时,推荐使用qBittorrent等无限速下载软件,有条件的推荐115更好的下载软件!


游客,如果您要查看本帖隐藏内容请回复

游客,如果您要查看本帖隐藏内容请回复






上一篇:地下丝绒 / The Velvet Underground (2021) 4K高清版本下载20.39GB
下一篇:天后小助理 / The High Note (2020) 4K高清版本下载
回复

使用道具 举报

5

主题

1452

帖子

4200

积分

4K家园VIP

Rank: 9Rank: 9Rank: 9

积分
4200
发表于 2021-10-19 10:05:23 | 显示全部楼层
占位编辑
回复 支持 反对

使用道具 举报

0

主题

6576

帖子

1万

积分

4K家园VIP

Rank: 9Rank: 9Rank: 9

积分
15360
发表于 2021-10-19 11:01:45 | 显示全部楼层
太好啦&萬分感謝版主的無私發佈分享%
回复 支持 反对

使用道具 举报

50

主题

1457

帖子

4233

积分

4K家园VIP

Rank: 9Rank: 9Rank: 9

积分
4233
发表于 2021-10-19 19:27:51 | 显示全部楼层
佩服佩服!
回复 支持 反对

使用道具 举报

1

主题

1302

帖子

3932

积分

4K家园VIP

Rank: 9Rank: 9Rank: 9

积分
3932
发表于 2021-10-21 12:27:55 | 显示全部楼层
我也顶起出售广告位
回复 支持 反对

使用道具 举报

5

主题

1590

帖子

4390

积分

中级会员

Rank: 4

积分
4390
发表于 2021-10-22 19:44:20 来自手机 | 显示全部楼层
呵呵。。。
回复 支持 反对

使用道具 举报

2

主题

1588

帖子

4364

积分

4K家园VIP

Rank: 9Rank: 9Rank: 9

积分
4364
发表于 2021-10-25 03:15:37 | 显示全部楼层
支持,赞一个
回复 支持 反对

使用道具 举报

您需要登录后才可以回帖 登录 | 立即注册

本版积分规则

精彩图文
Archiver|手机版|TAG|Sitemap|新帖|专题|联系我们:邮箱: 4kjia.com@gmail.com   

4k家园   ©2019