[4K电影] 天后小助理 / The High Note (2020) 4K高清版本下载

[复制链接]

1134

主题

1211

帖子

9838

积分

超级版主

Rank: 8Rank: 8

积分
9838
 楼主| 发表于 2021-10-19 10:14:54 | 显示全部楼层 |阅读模式
本帖最后由 最爱4K哟 于 2021-10-19 11:14 编辑

134749j9ieq84zisiq3icc.jpg

◎译  ◎译  名 高调/天后小助理(台)/封面人物/我老细系天后(港)
◎片  名 The High Note/Covers
◎年  代 2020
◎产  地 美国
◎类  别 剧情 / 爱情 / 音乐
◎语  言 英语
◎上映日期 2020-05-29(美国)
◎IMDb评分  6.2/10 from 2749 users
◎IMDb链接  https://www.imdb.com/title/tt9308382
◎豆瓣评分 6.2/10 from 1656 users
◎豆瓣链接 https://movie.douban.com/subject/33456586/
◎片  长 112分钟
◎导  演 尼萨·加纳特 Nisha Ganatra
◎编  剧 Flora Greeson
◎主  演 达科塔·约翰逊 Dakota Johnson
       特雷西·埃利斯·罗斯 Tracee Ellis Ross
       小凯文·哈里森 Kelvin Harrison Jr.
       艾斯·库珀 Ice Cube
       佐伊·晁 Zoë Chao
       艾迪·伊扎德 Eddie Izzard
       比尔·普尔曼 Bill Pullman
       迪柏洛 Diplo
       琼·黛安·拉斐尔 June Diane Raphael
       本·刘易斯 Ben Lewis
       德尼·阿克代尼兹 Deniz Akdeniz
       桑德拉·罗斯科 Sandra Rosko
       Rupak Ginn
       杰弗里·塞尔夫 Jeffery Self
       Alexandra Vassell
       Molly Malin
       Sonal Shah



◎简  介


  达科塔·约翰逊(《五十度灰》)和特雷西·埃利斯·罗斯(《喜新不厌旧》)主演的音乐剧情片《高调》发布预告,天后歌手和她的私人助理的故事。天后看似高傲没心没肺,实则对自己40岁后的发展而倍感压力,想寻求艺术上的突破;助理很感激能跟对方合作,但苦于自己碌碌无为只能做杂事,想施展音乐制作方面的才华。此时,可能同时改变两人人生的机会来了:天后将发行下一张专辑,她打破陈规,邀请自荐的助理来担任新专制作人。她们能成功吗?动物保护区生活的猎人被迫卷入了一场致命的猫捉老鼠的游戏,他和当地治安官出发去追踪一名凶手,而凶手可能正是几年前绑架了他的女儿的神秘人。

Video
ID : 1
Format : HEVC
Format/Info : High Efficiency Video Coding
Format profile : Main 10@L5@High
HDR format : SMPTE ST 2086, HDR10 compatible
Codec ID : V_MPEGH/ISO/HEVC
Duration : 1 h 53 min
Bit rate : 14.4 Mb/s
Width : 3 836 pixels
Height : 1 604 pixels
Display aspect ratio : 2.40:1
Frame rate mode : Constant
Frame rate : 23.976 (23976/1000) FPS
Color space : YUV
Chroma subsampling : 4:2:0 (Type 2)
Bit depth : 10 bits
Bits/(Pixel*Frame) : 0.097
Stream size : 11.4 GiB (74%)
Default : Yes
Forced : No
Color range : Limited
Color primaries : BT.2020
Transfer characteristics : PQ
Matrix coefficients : BT.2020 non-constant
Mastering display color primaries : BT.2020
Mastering display luminance : min: 0.0050 cd/m2, max: 1000 cd/m2
Maximum Content Light Level : 6635 cd/m2
Maximum Frame-Average Light Level : 191 cd/m2

Audio #1
ID : 2
Format : DTS XLL
Format/Info : Digital Theater Systems
Commercial name : DTS-HD Master Audio
Codec ID : A_DTS
Duration : 1 h 52 min
Bit rate mode : Variable
Bit rate : 4 355 kb/s
Channel(s) : 8 channels
Channel layout : C L R LFE Lb Rb Lss Rss
Sampling rate : 48.0 kHz
Frame rate : 93.750 FPS (512 SPF)
Bit depth : 24 bits
Compression mode : Lossless
Delay relative to video : 24 s 100 ms
Stream size : 3.44 GiB (22%)
Title : DTS-HD MA 7.1
Language : English
Default : Yes
Forced : No

Audio #2
ID : 3
Format : E-AC-3 JOC
Format/Info : Enhanced AC-3 with Joint Object Coding
Commercial name : Dolby Digital Plus with Dolby Atmos
Codec ID : A_EAC3
Duration : 1 h 53 min
Bit rate mode : Constant
Bit rate : 768 kb/s
Channel(s) : 6 channels
Channel layout : L R C LFE Ls Rs
Sampling rate : 48.0 kHz
Frame rate : 31.250 FPS (1536 SPF)
Compression mode : Lossy
Stream size : 623 MiB (4%)
Language : English
Service kind : Complete Main
Default : No
Forced : No
Complexity index : 16
Number of dynamic objects : 15
Bed channel count : 1 channel
Bed channel configuration : LFE

Text #1
ID : 4
Format : UTF-8
Codec ID : S_TEXT/UTF8
Codec ID/Info : UTF-8 Plain Text
Duration : 1 h 52 min
Bit rate : 84 b/s
Count of elements : 2243
Stream size : 69.5 KiB (0%)
Title : SDH
Language : English
Default : Yes
Forced : No

Text #2
ID : 5
Format : UTF-8
Codec ID : S_TEXT/UTF8
Codec ID/Info : UTF-8 Plain Text
Duration : 1 h 52 min
Bit rate : 97 b/s
Count of elements : 1870
Stream size : 80.6 KiB (0%)
Language : Arabic
Default : No
Forced : No

Text #3
ID : 6
Format : UTF-8
Codec ID : S_TEXT/UTF8
Codec ID/Info : UTF-8 Plain Text
Duration : 1 h 52 min
Bit rate : 103 b/s
Count of elements : 1912
Stream size : 85.5 KiB (0%)
Language : Bulgarian
Default : No
Forced : No

Text #4
ID : 7
Format : UTF-8
Codec ID : S_TEXT/UTF8
Codec ID/Info : UTF-8 Plain Text
Duration : 1 h 52 min
Bit rate : 60 b/s
Count of elements : 1381
Stream size : 49.5 KiB (0%)
Language : Czech
Default : No
Forced : No

Text #5
ID : 8
Format : UTF-8
Codec ID : S_TEXT/UTF8
Codec ID/Info : UTF-8 Plain Text
Duration : 1 h 52 min
Bit rate : 59 b/s
Count of elements : 1301
Stream size : 49.4 KiB (0%)
Language : Danish
Default : No
Forced : No

Text #6
ID : 9
Format : UTF-8
Codec ID : S_TEXT/UTF8
Codec ID/Info : UTF-8 Plain Text
Duration : 1 h 51 min
Bit rate : 63 b/s
Count of elements : 1410
Stream size : 52.1 KiB (0%)
Language : German
Default : No
Forced : No

Text #7
ID : 10
Format : UTF-8
Codec ID : S_TEXT/UTF8
Codec ID/Info : UTF-8 Plain Text
Duration : 1 h 52 min
Bit rate : 114 b/s
Count of elements : 1852
Stream size : 94.6 KiB (0%)
Language : Greek
Default : No
Forced : No

Text #8
ID : 11
Format : UTF-8
Codec ID : S_TEXT/UTF8
Codec ID/Info : UTF-8 Plain Text
Duration : 1 h 52 min
Bit rate : 68 b/s
Count of elements : 2019
Stream size : 56.5 KiB (0%)
Title : European
Language : Spanish
Default : No
Forced : No

Text #9
ID : 12
Format : UTF-8
Codec ID : S_TEXT/UTF8
Codec ID/Info : UTF-8 Plain Text
Duration : 1 h 52 min
Bit rate : 65 b/s
Count of elements : 1843
Stream size : 54.0 KiB (0%)
Language : Estonian
Default : No
Forced : No

Text #10
ID : 13
Format : UTF-8
Codec ID : S_TEXT/UTF8
Codec ID/Info : UTF-8 Plain Text
Duration : 1 h 52 min
Bit rate : 50 b/s
Count of elements : 1373
Stream size : 41.8 KiB (0%)
Language : Finnish
Default : No
Forced : No

Text #11
ID : 14
Format : UTF-8
Codec ID : S_TEXT/UTF8
Codec ID/Info : UTF-8 Plain Text
Duration : 1 h 51 min
Bit rate : 53 b/s
Count of elements : 1649
Stream size : 43.7 KiB (0%)
Title : European
Language : French
Default : No
Forced : No

Text #12
ID : 15
Format : UTF-8
Codec ID : S_TEXT/UTF8
Codec ID/Info : UTF-8 Plain Text
Duration : 1 h 52 min
Bit rate : 89 b/s
Count of elements : 1897
Stream size : 73.9 KiB (0%)
Language : Hebrew
Default : No
Forced : No

Text #13
ID : 16
Format : UTF-8
Codec ID : S_TEXT/UTF8
Codec ID/Info : UTF-8 Plain Text
Duration : 1 h 52 min
Bit rate : 187 b/s
Count of elements : 2013
Stream size : 155 KiB (0%)
Language : Hindi
Default : No
Forced : No

Text #14
ID : 17
Format : UTF-8
Codec ID : S_TEXT/UTF8
Codec ID/Info : UTF-8 Plain Text
Duration : 1 h 52 min
Bit rate : 52 b/s
Count of elements : 1759
Stream size : 43.2 KiB (0%)
Language : Croatian
Default : No
Forced : No

Text #15
ID : 18
Format : UTF-8
Codec ID : S_TEXT/UTF8
Codec ID/Info : UTF-8 Plain Text
Duration : 1 h 52 min
Bit rate : 62 b/s
Count of elements : 1949
Stream size : 51.8 KiB (0%)
Language : Hungarian
Default : No
Forced : No

Text #16
ID : 19
Format : UTF-8
Codec ID : S_TEXT/UTF8
Codec ID/Info : UTF-8 Plain Text
Duration : 1 h 52 min
Bit rate : 65 b/s
Count of elements : 1462
Stream size : 53.6 KiB (0%)
Language : Italian
Default : No
Forced : No

Text #17
ID : 20
Format : UTF-8
Codec ID : S_TEXT/UTF8
Codec ID/Info : UTF-8 Plain Text
Duration : 1 h 52 min
Bit rate : 73 b/s
Count of elements : 1962
Stream size : 60.8 KiB (0%)
Language : Lithuanian
Default : No
Forced : No

Text #18
ID : 21
Format : UTF-8
Codec ID : S_TEXT/UTF8
Codec ID/Info : UTF-8 Plain Text
Duration : 1 h 52 min
Bit rate : 74 b/s
Count of elements : 1991
Stream size : 61.4 KiB (0%)
Language : Latvian
Default : No
Forced : No

Text #19
ID : 22
Format : UTF-8
Codec ID : S_TEXT/UTF8
Codec ID/Info : UTF-8 Plain Text
Duration : 1 h 52 min
Bit rate : 71 b/s
Count of elements : 1954
Stream size : 58.6 KiB (0%)
Language : Norwegian Bokmal
Default : No
Forced : No

迅雷下载资源速度为零,资源敏感或被和谐时,推荐使用qBittorrent等无限速下载软件,有条件的推荐115更好的下载软件!

游客,如果您要查看本帖隐藏内容请回复







上一篇:校园蓝调(内封简繁中字)/ Varsity Blues (1999) 4K高清版本下载
下一篇:八哥(内封简繁中字) / The Starling (2021) 4K高清版本下载
回复

使用道具 举报

3

主题

1241

帖子

3741

积分

4K家园VIP

Rank: 9Rank: 9Rank: 9

积分
3741
发表于 2021-10-19 10:14:59 | 显示全部楼层
楼猪辛苦了,支持一下分享好资源
回复 支持 反对

使用道具 举报

0

主题

6718

帖子

1万

积分

4K家园VIP

Rank: 9Rank: 9Rank: 9

积分
15606
发表于 2021-10-19 11:01:26 | 显示全部楼层
太好啦&萬分感謝版主的無私發佈分享%
回复 支持 反对

使用道具 举报

0

主题

664

帖子

2317

积分

注册会员

Rank: 2

积分
2317
发表于 2021-10-20 17:35:14 | 显示全部楼层
谢谢楼主分享...
回复 支持 反对

使用道具 举报

1

主题

1377

帖子

3979

积分

4K家园VIP

Rank: 9Rank: 9Rank: 9

积分
3979
发表于 2021-10-20 22:04:07 | 显示全部楼层
都不知道说的啥
回复 支持 反对

使用道具 举报

1

主题

1697

帖子

4699

积分

4K家园VIP

Rank: 9Rank: 9Rank: 9

积分
4699
发表于 2021-10-21 23:14:01 来自手机 | 显示全部楼层
垃圾
回复 支持 反对

使用道具 举报

2

主题

1127

帖子

3403

积分

4K家园VIP

Rank: 9Rank: 9Rank: 9

积分
3403
发表于 2021-10-26 15:08:51 来自手机 | 显示全部楼层
有空一起交流一下
回复 支持 反对

使用道具 举报

2

主题

1310

帖子

3796

积分

4K家园VIP

Rank: 9Rank: 9Rank: 9

积分
3796
发表于 2021-10-28 04:31:16 | 显示全部楼层
顶起顶起顶起
回复 支持 反对

使用道具 举报

您需要登录后才可以回帖 登录 | 立即注册

本版积分规则

精彩图文
Archiver|手机版|TAG|Sitemap|新帖|专题|联系我们:邮箱: 4kjia.com@gmail.com   

4k家园   ©2019