[4Kjia独享4K资源] 不义联盟/Injustice (2021) 4K高清版本下载

[复制链接]

1094

主题

1167

帖子

9581

积分

超级版主

Rank: 8Rank: 8

积分
9581
 楼主| 发表于 2021-10-19 10:35:08 | 显示全部楼层 |阅读模式
本帖最后由 没完没了 于 2021-10-20 21:00 编辑

p2697900279_副本.jpg

◎译  名 不义联盟
◎片  名 Injustice: Gods Among Us! The Movie
◎年  代 2021
◎产  地 美国
◎类  别 剧情 / 奇幻 / 冒险
◎语  言 英语
◎上映日期 2021-10-09(美国)
◎IMDb评分  0/10 from 0 users
◎IMDb链接  https://www.imdb.com/title/tt5012504
◎豆瓣评分 4.4/10 from 1180 users
◎豆瓣链接 https://movie.douban.com/subject/35467746/
◎编  剧 汤姆·泰勒 Tom Taylor
◎主  演 贾斯汀·哈特雷 Justin Hartley
      安松·蒙特 Anson Mount
      劳拉·贝莉 Laura Bailey
      扎克·卡利森 Zach Callison
      布莱恩·T·德莱尼 Brian T. Delaney
      布兰登·迈克尔·霍尔 Brandon Micheal Hall
      弗雷德·塔特西奥 Fred Tatasciore
      奥利弗·赫斯顿 Oliver Hudson
      珍妮特·瓦尼 Janet Varney
      吉莉安·雅各布斯 Gillian Jacobs


◎简  介

  华纳家庭娱乐将打造根据游戏《不义联盟:人间之神》(Injustice: Gods Among Us)改编的动画影片。华纳在[蝙蝠侠:漫长的万圣节(下)]新闻稿中透露,其在8月10日发行的蓝光光碟中将包括这部游改动画影片的预告。该片具体细节暂未知。原版游戏讲述在杀死小丑之后,超人又继续处决罪犯,他变得越来越腐败。五年后,超人成立了“一个地球政权”,以维护全球和平,但以蝙蝠侠为首的许多DC超级英雄联合起来,反对该政权。
General
Complete name                  : H:\Injustice.2021.2160p.WEB-DL.DD5.1.HDR.HEVC-EVO.mkv
Format                         : Matroska
Format version                 : Version 4
File size                      : 8.05 GiB
Duration                       : 1 h 18 min
Overall bit rate               : 14.7 Mb/s
Encoded date                   : UTC 2021-10-18 23:01:50
Writing application            : mkvmerge v19.0.0 ('Brave Captain') 64-bit
Writing library                : libebml v1.3.5 + libmatroska v1.4.8

Video
ID                             : 1
Format                         : HEVC
Format/Info                    : High Efficiency Video Coding
Format profile                 : Main 10@L5@High
HDR format                     : SMPTE ST 2086, HDR10 compatible
Codec ID                       : V_MPEGH/ISO/HEVC
Duration                       : 1 h 18 min
Bit rate                       : 14.0 Mb/s
Width                          : 3 840 pixels
Height                         : 2 160 pixels
Display aspect ratio           : 16:9
Frame rate mode                : Constant
Frame rate                     : 23.976 (24000/1001) FPS
Color space                    : YUV
Chroma subsampling             : 4:2:0 (Type 2)
Bit depth                      : 10 bits
Bits/(Pixel*Frame)             : 0.070
Stream size                    : 7.67 GiB (95%)
Default                        : Yes
Forced                         : No
Color range                    : Limited
Color primaries                : BT.2020
Transfer characteristics       : PQ
Matrix coefficients            : BT.2020 non-constant
Mastering display color primar : BT.2020
Mastering display luminance    : min: 0.0050 cd/m2, max: 1000 cd/m2
Maximum Content Light Level    : 1932 cd/m2
Maximum Frame-Average Light Le : 1865 cd/m2

Audio
ID                             : 2
Format                         : AC-3
Format/Info                    : Audio Coding 3
Commercial name                : Dolby Digital
Codec ID                       : A_AC3
Duration                       : 1 h 18 min
Bit rate mode                  : Constant
Bit rate                       : 384 kb/s
Channel(s)                     : 6 channels
Channel layout                 : L R C LFE Ls Rs
Sampling rate                  : 48.0 kHz
Frame rate                     : 31.250 FPS (1536 SPF)
Compression mode               : Lossy
Stream size                    : 216 MiB (3%)
Title                          : English
Language                       : English
Service kind                   : Complete Main
Default                        : No
Forced                         : No

迅雷下载资源速度为零,资源敏感或被和谐时,推荐使用qBittorrent等无限速下载软件,有条件的推荐115更好的下载软件!

****此区域为收费内容****    需支付 9 金币后可查看立即购买

****此区域为收费内容****    需支付 9 金币后可查看立即购买
游客,如果您要查看本帖隐藏内容请回复

游客,如果您要查看本帖隐藏内容请回复







上一篇:八哥(内封简繁中字) / The Starling (2021) 4K高清版本下载
下一篇:之后3 / After We Fell (2021) 4K高清版本下载
回复

使用道具 举报

1094

主题

1167

帖子

9581

积分

超级版主

Rank: 8Rank: 8

积分
9581
 楼主| 发表于 2021-10-19 11:08:21 | 显示全部楼层
Injustice.2021.2160p.WEB-DL.DD5.1.HDR.HEVC-EVO.mkv_20211019_110207.114.jpg Injustice.2021.2160p.WEB-DL.DD5.1.HDR.HEVC-EVO.mkv_20211019_110214.650.jpg Injustice.2021.2160p.WEB-DL.DD5.1.HDR.HEVC-EVO.mkv_20211019_110240.738.jpg Injustice.2021.2160p.WEB-DL.DD5.1.HDR.HEVC-EVO.mkv_20211019_110300.945.jpg Injustice.2021.2160p.WEB-DL.DD5.1.HDR.HEVC-EVO.mkv_20211019_110329.715.jpg Injustice.2021.2160p.WEB-DL.DD5.1.HDR.HEVC-EVO.mkv_20211019_110336.970.jpg Injustice.2021.2160p.WEB-DL.DD5.1.HDR.HEVC-EVO.mkv_20211019_110356.435.jpg Injustice.2021.2160p.WEB-DL.DD5.1.HDR.HEVC-EVO.mkv_20211019_110437.050.jpg
回复 支持 反对

使用道具 举报

47

主题

1486

帖子

4300

积分

4K家园VIP

Rank: 9Rank: 9Rank: 9

积分
4300
发表于 2021-10-19 10:35:17 来自手机 | 显示全部楼层
1v1飘过
回复 支持 反对

使用道具 举报

0

主题

6576

帖子

1万

积分

4K家园VIP

Rank: 9Rank: 9Rank: 9

积分
15360
发表于 2021-10-19 11:00:48 | 显示全部楼层
太好啦&萬分感謝版主的無私發佈分享%
回复 支持 反对

使用道具 举报

0

主题

43

帖子

997

积分

新手上路

Rank: 1

积分
997
发表于 2021-10-20 14:13:20 来自手机 | 显示全部楼层
下载看看
回复

使用道具 举报

0

主题

663

帖子

2311

积分

注册会员

Rank: 2

积分
2311
发表于 2021-10-20 17:34:54 | 显示全部楼层
谢谢楼主分享...
回复 支持 反对

使用道具 举报

0

主题

663

帖子

2311

积分

注册会员

Rank: 2

积分
2311
发表于 2021-10-20 17:37:31 | 显示全部楼层
谢谢楼主分享...
回复 支持 反对

使用道具 举报

1

主题

1580

帖子

4330

积分

4K家园VIP

Rank: 9Rank: 9Rank: 9

积分
4330
发表于 2021-10-24 17:20:21 | 显示全部楼层
在撸一遍。。。
回复 支持 反对

使用道具 举报

37

主题

1443

帖子

4145

积分

4K家园VIP

Rank: 9Rank: 9Rank: 9

积分
4145
发表于 2021-10-28 09:31:50 | 显示全部楼层
支持楼主,用户楼主,楼主英明呀!!!
回复 支持 反对

使用道具 举报

0

主题

1567

帖子

4281

积分

4K家园VIP

Rank: 9Rank: 9Rank: 9

积分
4281
发表于 2021-11-2 13:52:45 | 显示全部楼层
这么强,支持楼主,佩服
回复 支持 反对

使用道具 举报

您需要登录后才可以回帖 登录 | 立即注册

本版积分规则

精彩图文
Archiver|手机版|TAG|Sitemap|新帖|专题|联系我们:邮箱: 4kjia.com@gmail.com   

4k家园   ©2019